<?xml version="1.0" standalone="no"?>
<!DOCTYPE svg PUBLIC "-//W3C//DTD SVG 1.1//EN" "http://www.w3.org/Graphics/SVG/1.1/DTD/svg11.dtd" >
<svg xmlns="http://www.w3.org/2000/svg" xmlns:xlink="http://www.w3.org/1999/xlink" version="1.1">
<metadata></metadata>
<defs>
<font id="josefin_sansthin" horiz-adv-x="1044" >
<font-face units-per-em="2048" ascent="1536" descent="-512" />
<missing-glyph horiz-adv-x="536" />
<glyph horiz-adv-x="0" />
<glyph horiz-adv-x="0" />
<glyph unicode="&#xd;" horiz-adv-x="614" />
<glyph unicode=" "  horiz-adv-x="536" />
<glyph unicode="&#x09;" horiz-adv-x="536" />
<glyph unicode="&#xa0;" horiz-adv-x="536" />
<glyph unicode="!" horiz-adv-x="462" d="M193 115q0 18 12 29.5t26 11.5q16 0 28.5 -11.5t12.5 -29.5q0 -16 -12.5 -28.5t-28.5 -12.5q-14 0 -26 12t-12 29zM217 340v1196h29v-1196h-29z" />
<glyph unicode="&#x22;" horiz-adv-x="638" d="M168 967v508h37q-2 -129 -4 -254t-4 -254h-29zM440 967v508h37q-2 -129 -4 -254t-4 -254h-29z" />
<glyph unicode="#" horiz-adv-x="1177" d="M102 461q0 8 1 14t1 14h242q10 86 20.5 172.5t20.5 172.5h-237q0 8 1 14t1 14h239l55 455h29l-55 -455h348l55 455h29l-55 -455h278q0 -8 -1 -14t-1 -14h-280q-10 -86 -20.5 -172.5t-20.5 -172.5h276q0 -8 -1 -14t-1 -14h-278q-14 -117 -26.5 -230.5t-27.5 -230.5h-28 q14 117 26.5 230.5t26.5 230.5h-348q-14 -117 -26.5 -230.5t-27.5 -230.5h-28q14 117 26.5 230.5t26.5 230.5h-240zM375 489h348q10 86 20.5 172.5t20.5 172.5h-348q-10 -86 -20.5 -172.5t-20.5 -172.5z" />
<glyph unicode="$" horiz-adv-x="1069" d="M92 129l17 27q31 -23 75.5 -47.5t99 -46t116 -36t124.5 -14.5q76 0 150 22.5t131 69t93 116t36 163.5q0 121 -57.5 194.5t-144.5 120.5t-187.5 80t-187.5 73t-144 100.5t-57 160.5q0 70 29.5 130.5t80.5 105.5t121 69.5t150 24.5q37 0 83 -5t93 -15.5t93 -25t83 -30.5 l-12 -23q-29 12 -67 24.5t-81 24t-89 17.5t-91 6q-84 0 -151.5 -23.5t-114.5 -64.5t-73 -95t-26 -114q0 -96 57.5 -151.5t144.5 -94t187.5 -72.5t187.5 -83t144.5 -127t57.5 -205q0 -94 -34 -168t-93.5 -126t-140.5 -79.5t-177 -27.5q-84 0 -154.5 18t-125 43t-91 49.5 t-55.5 34.5zM502 -139v1704h28v-1704h-28z" />
<glyph unicode="%" horiz-adv-x="1290" d="M113 797q0 45 17 86t48 70.5t72 47t88 17.5q45 0 86 -17.5t71.5 -47t49 -70.5t18.5 -86q0 -47 -18.5 -88t-49 -71t-71.5 -47.5t-86 -17.5q-47 0 -88 17.5t-72 47.5t-48 71t-17 88zM141 795q0 -41 15.5 -76t42 -60.5t62.5 -41t77 -15.5t77 15.5t62.5 41t42 60.5t15.5 76 q0 39 -15.5 74.5t-42 62t-62.5 42t-77 15.5t-77 -15.5t-62.5 -42t-42 -62t-15.5 -74.5zM317 0q154 258 305.5 512t305.5 512h33q-154 -258 -305.5 -512t-305.5 -512h-33zM735 231q0 45 17.5 86t48 71t71.5 47.5t89 17.5q45 0 85.5 -17.5t71.5 -47.5t49.5 -71t18.5 -86 q0 -47 -18.5 -88t-49.5 -70.5t-71.5 -47t-85.5 -17.5q-47 0 -88.5 17.5t-72 47t-48 70.5t-17.5 88zM764 229q0 -41 15.5 -75.5t42 -60t62.5 -41t77 -15.5t76.5 15.5t62 41t42 60t15.5 75.5q0 39 -15.5 75t-42 62.5t-62.5 42t-76 15.5q-41 0 -77 -15.5t-62.5 -42t-42 -62.5 t-15.5 -75z" />
<glyph unicode="&#x26;" horiz-adv-x="1312" d="M111 381q0 86 37.5 158.5t100 127t143.5 85t167 34.5l8 -30q-72 0 -146.5 -28t-136 -77t-100.5 -118.5t-39 -155.5q0 -80 34 -146.5t92.5 -114.5t136 -74t163.5 -26q72 0 139.5 18.5t123 49.5t97.5 72t62 86l19 -31q-27 -49 -71 -90t-102.5 -71t-126 -46t-141.5 -16 q-102 0 -186 30.5t-145.5 85t-95 126t-33.5 151.5zM295 1223q0 70 25.5 127t68.5 98t101.5 62.5t123.5 21.5q80 0 150 -27.5t121 -58.5l-6 -9t-7 -10q-61 35 -125.5 57.5t-130.5 22.5q-61 0 -114 -20.5t-92 -57t-61.5 -87t-22.5 -111.5q0 -41 9 -78t19 -63q12 -33 31 -58 l799 -1032h-37l-789 1018q-25 43 -44 91t-19 114zM993 242l203 544h35l-217 -573z" />
<glyph unicode="'" horiz-adv-x="366" d="M168 967v508h37q-2 -129 -4 -254t-4 -254h-29z" />
<glyph unicode="(" horiz-adv-x="516" d="M109 598q0 154 28.5 293t75.5 258t107.5 216t125.5 165q2 -12 3.5 -23.5t3.5 -23.5q-59 -68 -115.5 -160t-102 -204.5t-72 -244t-26.5 -276.5t26.5 -276.5t72 -244t101.5 -204.5t116 -160q-2 -12 -3 -23.5t-4 -23.5q-66 68 -126 165t-107 216t-75.5 258t-28.5 293z" />
<glyph unicode=")" horiz-adv-x="516" d="M63 -287q59 68 116 160t102 204.5t71.5 244t26.5 276.5t-26.5 276.5t-71.5 244t-101.5 204.5t-116.5 160q2 12 3.5 23.5t3.5 23.5q63 -68 124.5 -165t108.5 -216t76 -258t29 -293t-29 -293t-76 -258t-108.5 -216t-124.5 -165q-2 12 -3 23.5t-4 23.5z" />
<glyph unicode="*" horiz-adv-x="868" d="M172 1051l227 129l-227 135q4 6 7 12t7 12q57 -35 114.5 -66.5t115.5 -66.5v269h37q-2 -68 -2 -134.5t-2 -134.5q59 33 116.5 66t116.5 65q4 -6 7 -12t7 -12q-59 -35 -115.5 -67.5t-115.5 -67.5q57 -33 114.5 -66t114.5 -65l-18 -31l-227 135q-2 -66 -2.5 -131.5 t-2.5 -130.5h-28v260q-57 -33 -112.5 -64.5t-113.5 -64.5z" />
<glyph unicode="+" horiz-adv-x="983" d="M123 461v28h354v353h29v-353h354v-28h-354v-357h-29v357h-354z" />
<glyph unicode="," horiz-adv-x="471" d="M92 -246q41 106 79 211t79 211h47q-45 -106 -88 -210.5t-88 -211.5h-29z" />
<glyph unicode="-" horiz-adv-x="671" d="M147 377v29h377v-29h-377z" />
<glyph unicode="." horiz-adv-x="376" d="M147 41q0 16 12.5 28.5t28.5 12.5t28.5 -12.5t12.5 -28.5t-12 -28.5t-29 -12.5q-16 0 -28.5 12.5t-12.5 28.5z" />
<glyph unicode="/" horiz-adv-x="790" d="M96 -39q143 389 284.5 773t285.5 773h28q-143 -389 -284.5 -773t-284.5 -773h-29z" />
<glyph unicode="0" horiz-adv-x="1374" d="M137 670q0 98 30 216t95.5 221t172 172t259.5 69q152 0 256.5 -71t168 -174.5t91 -222t27.5 -216.5q0 -141 -45 -265.5t-121 -216.5t-177 -144t-214 -52t-212 54t-173 146.5t-116 216.5t-42 267zM168 672q0 -150 43 -270.5t114.5 -206.5t166 -133.5t192.5 -47.5t192.5 45 t168 129t118.5 205t45 269q0 150 -39 271.5t-108.5 206.5t-163.5 132t-205 47t-206 -44t-165.5 -129t-111.5 -204.5t-41 -269.5z" />
<glyph unicode="1" horiz-adv-x="583" d="M70 1303v28h260v-1331h-29v1303h-231z" />
<glyph unicode="2" horiz-adv-x="1036" d="M131 961q0 82 23.5 152.5t69.5 122.5t115 82t157 30q80 0 145.5 -30t113.5 -83t73.5 -126t25.5 -159q0 -119 -60.5 -236.5t-154.5 -232t-208 -228t-220 -224.5h737v-29h-811q131 127 256 251t220.5 241.5t153.5 227t58 206.5q0 115 -32.5 190.5t-81.5 120.5t-106.5 63.5 t-108.5 18.5q-102 0 -167 -36t-103 -90t-52 -116.5t-14 -115.5q0 -145 82 -234q-4 -4 -9.5 -8t-9.5 -8q-43 49 -67.5 107.5t-24.5 142.5z" />
<glyph unicode="3" horiz-adv-x="989" d="M131 119q4 6 10 13t11 13q49 -59 120.5 -96t157.5 -37q80 0 152.5 31t126 84t85 124t31.5 148q0 80 -31.5 151t-85 123t-126 82.5t-152.5 30.5q-33 0 -64.5 -12t-60.5 -35q111 141 217.5 281.5t216.5 282.5h-587v28h653q-102 -129 -203.5 -258t-204.5 -258 q92 4 175 -25.5t145.5 -85t99.5 -134t37 -171.5q0 -86 -33 -161.5t-90 -132t-133 -89t-162 -32.5q-92 0 -170 36.5t-135 98.5z" />
<glyph unicode="4" horiz-adv-x="1083" d="M49 375q188 244 374.5 486.5t375.5 486.5v-945h198v-28h-198v-375h-29v375h-721zM111 403h659v861q-166 -217 -330 -430t-329 -431z" />
<glyph unicode="5" horiz-adv-x="970" d="M137 98q6 4 11.5 10.5t11.5 10.5q49 -51 115.5 -79t144.5 -28q82 0 153.5 31t125 84t85 124t31.5 148q0 80 -31.5 148.5t-85 121t-125 82t-153.5 29.5q-72 0 -131 -23.5t-94 -58.5v633h587v-28h-559v-541q47 23 97.5 35t103.5 12q86 0 163 -32t133 -87t90 -130t34 -161 t-34 -161.5t-90 -132t-133 -89t-163 -32.5q-84 0 -156.5 30.5t-130.5 83.5z" />
<glyph unicode="6" horiz-adv-x="1085" d="M129 395q0 150 63.5 278t162 238.5t219 205.5t235.5 179q4 -6 10 -13t10 -13q-137 -90 -241.5 -178t-179 -169t-122.5 -152t-73 -128q57 76 143 121t191 45q86 0 162.5 -33t133 -89t89.5 -131t33 -161t-33 -160.5t-89.5 -130t-133 -88t-162.5 -32.5t-163 32.5t-133 88 t-89 130t-33 160.5zM156 395q0 -80 30.5 -149.5t83 -121.5t124 -82t151.5 -30t151.5 30t124.5 82t84 121.5t31 149.5t-31 149.5t-84 122t-124.5 83t-151.5 30.5t-151.5 -30.5t-124 -83t-83 -122t-30.5 -149.5z" />
<glyph unicode="7" horiz-adv-x="940" d="M80 1303v28h821q-150 -336 -299 -665.5t-299 -665.5h-37q147 328 294 651.5t294 651.5h-774z" />
<glyph unicode="8" horiz-adv-x="1091" d="M131 399q0 72 23.5 136.5t64.5 117t97.5 90t123.5 54.5q-86 29 -141 99.5t-55 164.5q0 59 23.5 111.5t63.5 91.5t93 61.5t115 22.5q61 0 114.5 -24t93 -63.5t63.5 -93t24 -114.5q0 -90 -52.5 -159t-136.5 -97q68 -16 126 -53t101 -89.5t68 -117t25 -138.5 q0 -86 -34 -161.5t-90.5 -132t-133 -89t-162.5 -32.5t-161 32.5t-131 89t-89 132t-33 161.5zM160 399q0 -78 29.5 -148.5t81 -123.5t121 -85t149.5 -32q82 0 153.5 32t124.5 85t85 124t32 148q0 80 -32 148.5t-85 121t-124.5 82t-153.5 29.5q-80 0 -149.5 -29.5t-121 -82 t-81 -121t-29.5 -148.5zM272 1047q0 -51 20.5 -94.5t57.5 -75t86 -49t107 -17.5q55 0 103 17.5t84 49t55.5 74.5t19.5 95q0 55 -19.5 104t-55.5 86t-84 59.5t-103 22.5q-57 0 -106.5 -22.5t-86.5 -59.5t-57.5 -86t-20.5 -104z" />
<glyph unicode="9" horiz-adv-x="1085" d="M121 885q0 86 32.5 160.5t89 130t133.5 88t163 32.5t162.5 -32.5t133 -88t89 -130t32.5 -160.5q0 -150 -63.5 -278t-161.5 -238.5t-219 -205.5t-236 -179q-4 6 -10 13t-10 13q137 90 241.5 178t179.5 169t123 152t72 128q-57 -76 -143 -121t-190 -45q-86 0 -163 33 t-133.5 89t-89 131t-32.5 161zM150 885q0 -80 30.5 -150.5t83.5 -123t125 -82t152 -29.5t151.5 29.5t123.5 82t83 123t31 150.5t-31 149.5t-83 121.5t-123.5 82t-151.5 30t-152 -30t-125 -82t-83.5 -121.5t-30.5 -149.5z" />
<glyph unicode=":" horiz-adv-x="376" d="M147 41q0 16 12.5 28.5t28.5 12.5t28.5 -12.5t12.5 -28.5t-12 -28.5t-29 -12.5q-16 0 -28.5 12.5t-12.5 28.5zM147 553q0 16 12.5 28.5t28.5 12.5t28.5 -12.5t12.5 -28.5t-12 -28.5t-29 -12.5q-16 0 -28.5 12.5t-12.5 28.5z" />
<glyph unicode=";" horiz-adv-x="460" d="M74 -246q41 106 78.5 211t78.5 211h48q-45 -106 -88.5 -210.5t-88.5 -211.5h-28zM229 553q0 16 12.5 28.5t28.5 12.5t28.5 -12.5t12.5 -28.5t-12 -28.5t-29 -12.5q-16 0 -28.5 12.5t-12.5 28.5z" />
<glyph unicode="&#x3c;" horiz-adv-x="1146" d="M76 487q225 129 448.5 259.5t448.5 259.5v-33q-211 -123 -422 -243t-422 -243q211 -123 422 -242.5t422 -242.5v-33q-225 129 -448.5 259t-448.5 259z" />
<glyph unicode="=" horiz-adv-x="1372" d="M168 307v29h1036v-29h-1036zM168 705v28h1036v-28h-1036z" />
<glyph unicode="&#x3e;" horiz-adv-x="1146" d="M174 2q211 123 422 243t422 242q-211 123 -422 243t-422 243v33q225 -129 448.5 -259.5t448.5 -259.5q-225 -129 -448.5 -259t-448.5 -259v33z" />
<glyph unicode="?" horiz-adv-x="987" d="M82 1227q41 119 143.5 195.5t235.5 76.5q84 0 157.5 -31.5t128 -86t85 -127t30.5 -154.5q0 -111 -54 -194t-146 -148q-41 -29 -75 -48.5t-59.5 -44t-40 -63.5t-14.5 -106v-160h-29v199q0 63 24 101t61.5 67.5t86 59.5t97.5 73q63 55 92 121.5t29 142.5q0 80 -29 147.5 t-79 117.5t-118.5 77.5t-146.5 27.5q-61 0 -116.5 -18t-102.5 -51t-81 -79t-52 -101q-6 2 -13.5 3t-13.5 3zM420 92q0 18 12 29.5t27 11.5q16 0 28.5 -11t12.5 -30q0 -16 -12.5 -28.5t-28.5 -12.5q-14 0 -26.5 12.5t-12.5 28.5z" />
<glyph unicode="@" horiz-adv-x="1886" d="M119 387q0 168 63.5 315.5t173 258t257 174t315.5 63.5t315.5 -63.5t258 -174t174 -259t63.5 -316.5q0 -121 -24.5 -196.5t-63.5 -117.5t-89.5 -56.5t-101.5 -14.5h-174v27h189q111 0 173 86t62 272q0 162 -61.5 305.5t-168 250t-248.5 167.5t-304 61t-304.5 -61 t-248 -167.5t-167 -250t-61.5 -305.5t61.5 -304t167 -247.5t248 -167t304.5 -61.5q127 0 239.5 39t208.5 104q4 -6 9.5 -11t9.5 -11q-102 -70 -217 -110t-250 -40q-168 0 -315.5 63.5t-257 174t-173 258t-63.5 315.5zM500 385q0 82 30.5 155.5t85 127t126 85t155.5 31.5 q127 0 226.5 -70.5t144.5 -181.5q0 59 2 118t6 118h20v-768h-28v111q0 33 1 64.5t1 64.5q-23 -55 -59.5 -101.5t-85 -80t-106.5 -52t-122 -18.5q-84 0 -155.5 30.5t-126 85t-85 126t-30.5 155.5zM528 385q0 -78 29 -144.5t79 -116.5t116.5 -79t144.5 -29q76 0 143.5 29 t118.5 79t80 116.5t29 144.5q0 76 -29 143.5t-80 118.5t-118.5 80t-143.5 29q-78 0 -144.5 -29t-116.5 -80t-79 -118.5t-29 -143.5z" />
<glyph unicode="A" horiz-adv-x="1310" d="M61 0q158 375 297.5 749.5t296.5 749.5q158 -375 297.5 -749.5t296.5 -749.5h-30q-145 346 -272.5 691t-272.5 691q-4 12 -9.5 25.5t-9.5 26.5q-4 -12 -9 -25.5t-9 -26.5q-145 -346 -272 -691t-273 -691h-31zM340 651h633v29h-633v-29z" />
<glyph unicode="B" horiz-adv-x="1150" d="M244 0v1434h276q92 0 169 -20.5t132.5 -63.5t85 -113t29.5 -168q0 -59 -12.5 -114.5t-41 -101.5t-74.5 -80t-112 -52q61 -12 118.5 -41t102 -73t70 -104.5t25.5 -135.5q0 -90 -36 -159t-96.5 -115t-139 -69.5t-162.5 -23.5h-334zM272 29h303q82 0 157 20.5t130.5 62.5 t88 103t32.5 145q0 90 -38 155t-99.5 107t-142 62.5t-166.5 20.5h-265v-676zM272 733h301q164 0 249 96.5t85 251.5q0 86 -26.5 147.5t-74.5 100.5t-114.5 57.5t-146.5 18.5h-273v-672z" />
<glyph unicode="C" horiz-adv-x="1329" d="M125 709q0 156 57.5 291t156.5 235t232.5 157.5t284.5 57.5q104 0 197.5 -26.5t177.5 -75.5q-4 -6 -8 -12.5t-9 -12.5q-78 47 -169 72.5t-189 25.5q-145 0 -273 -55t-223.5 -152.5t-150.5 -227.5t-55 -279q0 -139 49 -265.5t139 -221.5t217 -151.5t283 -56.5 q106 0 197 25.5t171 73.5l19 -25q-82 -47 -175 -74.5t-204 -27.5q-164 0 -297 58t-228.5 156.5t-147.5 230.5t-52 280z" />
<glyph unicode="D" horiz-adv-x="1456" d="M244 0v1434h293q217 0 367.5 -67t244.5 -171t136 -231t42 -248q0 -164 -57.5 -297t-155.5 -226.5t-229 -143.5t-279 -50h-362zM272 29h346q137 0 261.5 48t218.5 137t148 217t54 286q0 117 -39.5 237.5t-129 221t-231.5 164t-345 63.5h-283v-1374z" />
<glyph unicode="E" horiz-adv-x="1245" d="M244 0v1434h850v-29h-822v-668h742v-28h-742v-680h850v-29h-878z" />
<glyph unicode="F" horiz-adv-x="1114" d="M244 0v1434h768v-29h-740v-688h660v-29h-660v-688h-28z" />
<glyph unicode="G" horiz-adv-x="1388" d="M125 715q0 152 57.5 286t156.5 233t232.5 157.5t284.5 58.5q104 0 197.5 -26.5t177.5 -75.5l-17 -25q-78 47 -169 72.5t-189 25.5q-145 0 -273 -56t-223.5 -152.5t-150.5 -225.5t-55 -274t49 -272.5t140 -222.5t219 -150.5t288 -55.5q96 0 184 23.5t166 68.5v482h-352v28 h381v-528q-82 -47 -175 -74.5t-198 -27.5q-166 0 -301 57t-230.5 156.5t-147.5 232.5t-52 285z" />
<glyph unicode="H" horiz-adv-x="1499" d="M244 0v1434h28v-697h951v697h37q-2 -360 -5 -717t-4 -717h-28v709h-951v-709h-28z" />
<glyph unicode="I" horiz-adv-x="516" d="M244 0v1434h28v-1434h-28z" />
<glyph unicode="J" horiz-adv-x="520" d="M-100 -262q76 4 139 35.5t110.5 90t74 140.5t26.5 186v1244h29v-1250q0 -115 -30 -201.5t-82 -146t-120.5 -92.5t-146.5 -35v29z" />
<glyph unicode="K" horiz-adv-x="1206" d="M244 0v1434h28v-697q0 -16 -1 -29.5t-1 -29.5q10 10 17.5 20.5t17.5 20.5q188 180 374.5 357t375.5 358h45q-150 -141 -297.5 -282.5t-296.5 -283.5q174 -217 343 -434t343 -434h-41q-168 213 -334 424t-334 424q-53 -51 -106 -100.5t-107 -100.5q0 -162 1 -323.5 t1 -323.5h-28z" />
<glyph unicode="L" horiz-adv-x="1132" d="M244 0v1434h28v-1405h830v-29h-858z" />
<glyph unicode="M" horiz-adv-x="1822" d="M244 0v1499q96 -143 180 -267t163 -239.5t158.5 -229.5t165.5 -237q45 66 116 173.5t159 237.5t188.5 275.5t204.5 286.5v-1499h-29v1321q0 23 1 46.5t1 45.5q-178 -250 -335.5 -487.5t-305.5 -458.5q-47 59 -105 142t-120.5 176.5t-126 188.5t-119 180t-100.5 152.5 t-70 106.5q0 -23 1 -46.5t1 -45.5v-1321h-28z" />
<glyph unicode="N" horiz-adv-x="1656" d="M244 0v1499q147 -186 286.5 -367.5t274.5 -360.5t270 -356t277 -358q10 -14 19 -26.5t20 -26.5q-2 16 -3.5 32.5t-3.5 33.5v1364h29v-1500q-293 367 -566.5 724.5t-541.5 713.5q-10 14 -19.5 26.5t-19.5 26.5q2 -16 3 -32.5t3 -32.5v-1360h-28z" />
<glyph unicode="O" horiz-adv-x="1716" d="M125 715q0 152 57.5 286t156.5 233t232.5 157.5t284.5 58.5q152 0 286 -58.5t233.5 -157.5t157.5 -233.5t58 -285.5q0 -152 -58 -285t-157.5 -232.5t-233.5 -156.5t-286 -57t-285 57t-232 156.5t-156.5 232.5t-57.5 285zM154 713q0 -145 55 -272.5t149.5 -222.5 t221.5 -150.5t270 -55.5q145 0 275 55.5t227.5 150.5t154 223t56.5 274q0 145 -56.5 273t-153 224.5t-224.5 152.5t-273 56t-273 -56t-223.5 -152.5t-150.5 -225.5t-55 -274z" />
<glyph unicode="P" horiz-adv-x="1048" d="M244 0v1434h286q59 0 131 -19.5t133.5 -63.5t103.5 -116t42 -178q0 -78 -25.5 -149.5t-79 -127t-136.5 -89.5t-197 -34h-230v-657h-28zM272 686h236q119 0 196.5 38t123.5 94t64.5 122t18.5 121q0 78 -30.5 141.5t-85 108.5t-127 69.5t-158.5 24.5h-238v-719z" />
<glyph unicode="Q" horiz-adv-x="1722" d="M125 715q0 152 57.5 286t156.5 233t232.5 157.5t284.5 58.5q152 0 286 -58.5t233.5 -157.5t157.5 -233.5t58 -285.5q0 -119 -35.5 -226.5t-99 -196.5t-153 -156.5t-193.5 -106.5h526v-29h-628q-78 -16 -152 -16q-152 0 -285 57t-232 156.5t-156.5 232.5t-57.5 285z M154 713q0 -145 55 -272.5t149.5 -222.5t221.5 -150.5t270 -55.5q145 0 275 55.5t227.5 150.5t154 223t56.5 274q0 145 -56.5 273t-153 224.5t-224.5 152.5t-273 56t-273 -56t-223.5 -152.5t-150.5 -225.5t-55 -274z" />
<glyph unicode="R" horiz-adv-x="1161" d="M244 0v1434h286q59 0 131 -19.5t133.5 -63.5t103.5 -116t42 -178q0 -78 -25.5 -149.5t-79 -127t-136.5 -89.5t-197 -34h-230v-657h-28zM272 686h236q119 0 196.5 39t123.5 97.5t64.5 124t18.5 118.5q0 76 -30.5 138.5t-85 107.5t-127 69.5t-158.5 24.5h-238v-719z M645 690h33l414 -690h-37z" />
<glyph unicode="S" horiz-adv-x="1087" d="M104 129l17 27q31 -23 76 -47.5t99 -46t115.5 -36t125.5 -14.5q76 0 149.5 22.5t130.5 69t93 116t36 163.5q0 121 -57.5 194.5t-144.5 120.5t-187 80t-187 73t-144.5 100.5t-57.5 160.5q0 70 29.5 130.5t81 105.5t121 69.5t149.5 24.5q37 0 83 -5t93 -15.5t93 -25 t83 -30.5l-12 -23q-29 12 -67 24.5t-81 24t-89 17.5t-91 6q-84 0 -151.5 -23.5t-114.5 -64.5t-72.5 -95t-25.5 -114q0 -96 57 -151.5t144 -94t187.5 -72.5t187.5 -83t144.5 -127t57.5 -205q0 -94 -34 -168t-93.5 -126t-140 -79.5t-177.5 -27.5q-84 0 -154.5 18t-124.5 43 t-91 49.5t-56 34.5z" />
<glyph unicode="T" horiz-adv-x="1019" d="M86 1405v29h848v-29h-410v-1405h-28v1405h-410z" />
<glyph unicode="U" horiz-adv-x="1370" d="M225 463v971h29v-965q0 -111 31.5 -196t89 -143t137.5 -88t174 -30q92 0 172 30t137.5 88t90 143t32.5 196v965h29v-971q0 -117 -36 -207t-97.5 -150.5t-145.5 -91t-182 -30.5t-183 30.5t-146.5 91t-96.5 150.5t-35 207z" />
<glyph unicode="V" horiz-adv-x="1306" d="M59 1434h31q145 -346 272 -691.5t273 -691.5q4 -12 9 -25.5t9 -25.5q4 12 9.5 25.5t9.5 25.5q145 346 272 691t273 692h30q-158 -375 -297 -750t-297 -750q-158 375 -297 750t-297 750z" />
<glyph unicode="W" horiz-adv-x="1904" d="M61 1434h31q37 -86 79 -191.5t87 -219.5t90 -229.5t88 -224.5q98 -254 201 -518l18 -51l15 51l254 785l-224 598h31q102 -270 197 -525q39 -109 82 -225.5t83 -229t76.5 -216t65.5 -187.5q4 -12 9 -25.5t9 -25.5q2 6 5.5 14.5t7.5 16.5t6 20q100 264 198 518 q43 109 88.5 224.5t90.5 229.5t88 219.5t80 191.5h30q-41 -94 -87 -209t-95 -238t-99 -249t-96 -242q-109 -276 -217 -562l-303 818l-14 43l-14 -43q-51 -158 -101 -308q-20 -63 -42.5 -131.5t-44 -136t-42 -129t-37.5 -113.5q-158 375 -297 750t-297 750z" />
<glyph unicode="X" horiz-adv-x="1105" d="M61 0q119 186 235.5 368.5t235.5 368.5q-113 174 -225 348.5t-225 348.5h33q106 -164 212.5 -327t213.5 -327q4 -6 8 -13t8 -13q4 6 8 13t8 13q104 164 209 327t209 327h25q-113 -178 -223.5 -349.5t-223.5 -349.5q119 -184 240 -367.5t240 -367.5h-35l-375 571 q-23 35 -46.5 75t-47.5 73q-4 -6 -8.5 -13.5t-8.5 -13.5q-111 -174 -221 -346t-221 -346h-25z" />
<glyph unicode="Y" horiz-adv-x="1216" d="M55 1434h35q123 -207 248 -411t246 -413l26 -53q6 14 11.5 26.5t11.5 26.5l491 824h35l-536 -897v-537h-29v537q-135 225 -269.5 448t-269.5 449z" />
<glyph unicode="Z" horiz-adv-x="1284" d="M49 0q262 369 527.5 714t527.5 691h-887q-63 0 -93 16.5t-30 75.5v8h33v-24q0 -18 13 -32.5t48 -14.5h973l-1061 -1405h1129v-29h-1180z" />
<glyph unicode="[" horiz-adv-x="608" d="M211 -305v1833h334v-29h-301v-1775h301v-29h-334z" />
<glyph unicode="\" horiz-adv-x="790" d="M96 1507h29q143 -389 284.5 -773t284.5 -773h-28q-143 389 -284.5 773t-285.5 773z" />
<glyph unicode="]" horiz-adv-x="608" d="M63 -276h302v1775h-302v29h334v-1833h-334v29z" />
<glyph unicode="^" horiz-adv-x="843" d="M176 981q61 92 123 185.5t123 185.5q61 -92 122.5 -185.5t123.5 -185.5h-33q-53 78 -106.5 158t-106.5 157q-53 -78 -106.5 -157.5t-106.5 -157.5h-33z" />
<glyph unicode="_" horiz-adv-x="1114" d="M147 0v29h820v-29h-820z" />
<glyph unicode="`" horiz-adv-x="409" d="M-29 1253h33q47 -68 92 -136t92 -136h-32q-47 68 -92.5 136.5t-92.5 135.5z" />
<glyph unicode="a" d="M92 385q0 82 31 155.5t85 127t126 85t155 31.5q127 0 226.5 -70.5t144.5 -181.5q0 59 2 118t6 118h21v-768h-29v111q0 33 1 64.5t1 64.5q-23 -55 -59.5 -101.5t-84.5 -80t-106.5 -52t-122.5 -18.5q-84 0 -155.5 30.5t-125.5 85t-85 126t-31 155.5zM121 385 q0 -78 28.5 -144.5t79 -116.5t117 -79t143.5 -29q76 0 143.5 29t119 79t80 116.5t28.5 144.5q0 76 -28.5 143.5t-80 118.5t-119 80t-143.5 29q-78 0 -144 -29t-116.5 -80t-79 -118.5t-28.5 -143.5z" />
<glyph unicode="b" d="M156 0v1536h28v-1004q45 111 144.5 181.5t226.5 70.5q82 0 154.5 -31.5t127 -85t85 -127t30.5 -155.5q0 -84 -30.5 -155.5t-85 -126t-127 -85t-154.5 -30.5q-63 0 -121.5 18.5t-106.5 52t-86 79.5t-59 102q0 -33 1 -65t1 -64v-111h-28zM184 385q0 -78 29 -144.5 t80 -116.5t117.5 -79t144.5 -29q76 0 143.5 29t117.5 79t79 116.5t29 144.5q0 76 -29 143.5t-79 118.5t-117.5 80t-143.5 29q-78 0 -144.5 -29t-117.5 -80t-80 -118.5t-29 -143.5z" />
<glyph unicode="c" horiz-adv-x="825" d="M92 385q0 82 31 155.5t85 127t126 85t155 31.5q72 0 136.5 -23.5t115.5 -64.5q-4 -6 -10 -11t-10 -11q-47 39 -106.5 60.5t-125.5 21.5q-78 0 -144 -29t-116.5 -80t-79 -118.5t-28.5 -143.5q0 -78 28.5 -144.5t79 -116.5t117 -79t143.5 -29q66 0 125.5 21.5t106.5 58.5 l20 -20q-53 -41 -116.5 -64.5t-135.5 -23.5q-84 0 -155.5 30.5t-125.5 85t-85 126t-31 155.5z" />
<glyph unicode="d" d="M92 385q0 82 31 155.5t85 127t126 85t155 31.5q127 0 226.5 -70.5t144.5 -181.5v1004h29v-1536h-29v111q0 33 1 64.5t1 64.5q-23 -55 -59.5 -101.5t-84.5 -80t-106.5 -52t-122.5 -18.5q-84 0 -155.5 30.5t-125.5 85t-85 126t-31 155.5zM121 385q0 -78 28.5 -144.5 t79 -116.5t117 -79t143.5 -29q76 0 143.5 29t119 79t80 116.5t28.5 144.5q0 76 -28.5 143.5t-80 118.5t-119 80t-143.5 29q-78 0 -144 -29t-116.5 -80t-79 -118.5t-28.5 -143.5z" />
<glyph unicode="e" horiz-adv-x="894" d="M92 385q0 82 31 155.5t85 128t126 86t155 31.5q127 0 214.5 -72.5t132.5 -183.5q-78 -31 -166 -66.5t-178.5 -72.5t-179.5 -72.5t-167 -68.5q41 -104 133.5 -169t210.5 -65q74 0 138.5 26t113.5 73l23 -21q-53 -49 -124 -77.5t-151 -28.5q-84 0 -155.5 30.5t-125.5 85 t-85 126t-31 155.5zM121 385q0 -59 14 -109q76 31 160 66t170 68.5t171 68.5t161 66q-43 92 -120 151.5t-188 59.5q-78 0 -144 -29t-116.5 -80t-79 -118.5t-28.5 -143.5z" />
<glyph unicode="f" horiz-adv-x="514" d="M59 733v29h134v299q0 113 29.5 201t81.5 147t121 91t146 36v-29q-70 0 -133 -30.5t-111 -88t-77 -138.5t-29 -181v-307h266v-29h-266v-733h-28v733h-134z" />
<glyph unicode="g" d="M92 385q0 82 31 155.5t85 127t126 85t155 31.5q127 0 226.5 -70.5t144.5 -181.5q0 59 2 118t6 118h21v-784q0 -66 -17.5 -129.5t-62.5 -112.5t-122 -80t-195 -31q-37 0 -75 5.5t-81 22.5t-90 48t-99 82l19 21q51 -49 96 -79t85 -45.5t76 -20.5t66 -5q109 0 179.5 26.5 t111.5 73.5t58.5 112t19.5 140v15.5v14.5t1 24.5t1 44.5v21.5t1 42t1 42v23.5q-23 -55 -59.5 -101.5t-84.5 -80t-106.5 -52t-122.5 -18.5q-84 0 -155.5 30.5t-125.5 85t-85 126t-31 155.5zM121 385q0 -78 28.5 -144.5t79 -116.5t117 -79t143.5 -29q76 0 143.5 29t119 79 t80 116.5t28.5 144.5q0 76 -28.5 143.5t-80 118.5t-119 80t-143.5 29q-78 0 -144 -29t-116.5 -80t-79 -118.5t-28.5 -143.5z" />
<glyph unicode="h" horiz-adv-x="901" d="M156 0v1536h28v-956q37 86 126 144t206 58q109 0 171.5 -63.5t66.5 -165.5v-553h-29v567q-4 74 -54 128.5t-141 58.5q-70 0 -132 -22.5t-110 -62.5t-76 -96.5t-28 -121.5v-451h-28z" />
<glyph unicode="i" horiz-adv-x="339" d="M129 1024q0 16 12.5 28.5t28.5 12.5t28.5 -12.5t12.5 -28.5t-12.5 -28.5t-28.5 -12.5t-28.5 12.5t-12.5 28.5zM156 0v768h28v-768h-28z" />
<glyph unicode="j" horiz-adv-x="339" d="M43 -350q51 57 82 140t31 187v791h28v-782q0 -117 -31.5 -206.5t-84.5 -148.5zM129 1024q0 16 12.5 28.5t28.5 12.5t28.5 -12.5t12.5 -28.5t-12.5 -28.5t-28.5 -12.5t-28.5 12.5t-12.5 28.5z" />
<glyph unicode="k" horiz-adv-x="749" d="M156 0v1536h28v-1176q117 111 228.5 213t228.5 213q4 -4 9 -10t9 -10q-78 -74 -149.5 -142.5t-149.5 -142.5q88 -121 176.5 -240.5t176.5 -240.5h-37q-86 117 -170 230.5t-170 230.5q-39 -35 -76 -72t-76 -72v-317h-28z" />
<glyph unicode="l" horiz-adv-x="356" d="M164 0v1536h29v-1536h-29z" />
<glyph unicode="m" horiz-adv-x="1470" d="M156 0v768h20l2 -201q41 96 131 155.5t207 59.5q100 0 162.5 -56t73.5 -148q43 92 132 148t201 56q109 0 171.5 -63.5t66.5 -165.5v-553h-29v567q-4 74 -54 128.5t-140 58.5q-68 0 -129.5 -21.5t-108.5 -60.5t-76.5 -92.5t-31.5 -116.5v-463h-29v567q-4 74 -54 128.5 t-141 58.5q-70 0 -132 -22.5t-110 -62.5t-76 -96.5t-28 -121.5v-451h-28z" />
<glyph unicode="n" horiz-adv-x="901" d="M156 0v768h20l2 -201q41 96 131 155.5t207 59.5q109 0 171.5 -63.5t66.5 -165.5v-553h-29v567q-4 74 -54 128.5t-141 58.5q-70 0 -132 -22.5t-110 -62.5t-76 -96.5t-28 -121.5v-451h-28z" />
<glyph unicode="o" horiz-adv-x="983" d="M92 385q0 82 31 155.5t85 128t126 86t155 31.5q82 0 156 -31.5t128 -86t86 -128t32 -155.5q0 -84 -32 -155.5t-86 -126t-128 -85t-156 -30.5q-84 0 -155.5 30.5t-125.5 85t-85 126t-31 155.5zM121 385q0 -78 28.5 -144.5t79 -116.5t117 -79t143.5 -29q76 0 143.5 29 t119 79t80 116.5t28.5 144.5q0 76 -28.5 143.5t-80 118.5t-119 80t-143.5 29q-78 0 -144 -29t-116.5 -80t-79 -118.5t-28.5 -143.5z" />
<glyph unicode="p" d="M156 -369v1137h28v-236q45 111 144.5 181.5t226.5 70.5q82 0 154.5 -31.5t127 -85t85 -127t30.5 -155.5q0 -84 -30.5 -155.5t-85 -126t-127 -85t-154.5 -30.5q-63 0 -121.5 18.5t-106.5 52t-86 79.5t-59 102q0 -33 1 -65t1 -64v-480h-28zM184 385q0 -78 29 -144.5 t80 -116.5t117.5 -79t144.5 -29q76 0 143.5 29t117.5 79t79 116.5t29 144.5q0 76 -29 143.5t-79 118.5t-117.5 80t-143.5 29q-78 0 -144.5 -29t-117.5 -80t-80 -118.5t-29 -143.5z" />
<glyph unicode="q" d="M92 385q0 82 31 155.5t85 127t126 85t155 31.5q127 0 226.5 -70.5t144.5 -181.5v236h29v-1137h-29v480q0 33 1 64.5t1 64.5q-23 -55 -59.5 -101.5t-84.5 -80t-106.5 -52t-122.5 -18.5q-84 0 -155.5 30.5t-125.5 85t-85 126t-31 155.5zM121 385q0 -78 28.5 -144.5 t79 -116.5t117 -79t143.5 -29q76 0 143.5 29t119 79t80 116.5t28.5 144.5q0 76 -28.5 143.5t-80 118.5t-119 80t-143.5 29q-78 0 -144 -29t-116.5 -80t-79 -118.5t-28.5 -143.5z" />
<glyph unicode="r" horiz-adv-x="534" d="M156 0v768h20l2 -201q43 98 133 154.5t207 60.5v-28q-68 -2 -128 -25.5t-106 -63.5t-73 -95.5t-27 -118.5v-451h-28z" />
<glyph unicode="s" horiz-adv-x="647" d="M86 80q6 4 11 9t12 9q12 -18 38.5 -34.5t57.5 -27.5t61.5 -17.5t55.5 -6.5t60.5 9.5t67 31t54 56t22.5 88.5q0 61 -30.5 96t-75.5 56.5t-99.5 37.5t-99.5 39t-75.5 59.5t-30.5 100.5q0 49 17.5 85t47 59.5t66.5 34.5t73 11q45 0 103.5 -19.5t101.5 -68.5l-20 -20 q-35 41 -89.5 60.5t-95.5 19.5q-27 0 -57.5 -9.5t-57 -28t-44 -49t-17.5 -73.5q0 -57 31 -90t76 -54.5t99 -38t99.5 -40t76 -60.5t30.5 -100q0 -43 -15.5 -83t-45 -71t-73.5 -49t-102 -18q-55 0 -122.5 21.5t-110.5 74.5z" />
<glyph unicode="t" horiz-adv-x="536" d="M37 723v29h182v352h29v-352h260v-29h-260v-723h-29v723h-182z" />
<glyph unicode="u" horiz-adv-x="901" d="M147 215v553h29v-567q4 -74 54.5 -128.5t140.5 -58.5q70 0 132 22.5t109 62.5t76 96.5t29 121.5v451h28v-768h-20l-2 201q-41 -98 -132 -156.5t-206 -58.5q-109 0 -171 63.5t-67 165.5z" />
<glyph unicode="v" horiz-adv-x="819" d="M45 768h31q94 -186 166.5 -374.5t167.5 -377.5q94 188 166.5 376t166.5 376h31q-51 -102 -95 -203.5t-87 -204t-87 -204t-95 -203.5q-51 102 -95.5 203.5t-87.5 204t-87 204t-95 203.5z" />
<glyph unicode="w" horiz-adv-x="1294" d="M45 768h31q84 -188 166 -376.5t168 -375.5q53 133 105.5 264.5t105.5 264.5q-25 55 -50.5 111.5t-50.5 111.5h31q84 -188 168 -376.5t166 -375.5q84 188 167 376t167 376h30q-92 -205 -182 -407.5t-182 -407.5q-61 141 -124 280.5t-124 280.5q-57 -141 -113.5 -280.5 t-113.5 -280.5q-92 205 -182.5 407.5t-182.5 407.5z" />
<glyph unicode="x" horiz-adv-x="718" d="M59 768h37l264 -362q66 92 129.5 180t128.5 180h35q-70 -98 -138.5 -192.5t-137.5 -192.5q72 -96 140.5 -190.5t139.5 -190.5h-32q-66 90 -132.5 179t-132.5 179q-66 -90 -128 -179t-128 -179h-36q70 96 137 191.5t137 191.5q-72 98 -141.5 192.5t-141.5 192.5z" />
<glyph unicode="y" horiz-adv-x="827" d="M49 768h31l334 -752l334 752h30l-495 -1137h-37l149 344z" />
<glyph unicode="z" horiz-adv-x="720" d="M59 831v9h27v-25q0 -18 16.5 -32.5t51.5 -14.5h501l-532 -739h522v-29h-571l532 739h-424q-63 0 -93 16.5t-30 75.5z" />
<glyph unicode="{" horiz-adv-x="555" d="M76 588v49q49 2 80.5 29.5t50 68.5t25 89t6.5 89v373q0 92 15 142.5t39.5 72t56.5 24.5t65 3h75v-29h-116q-63 0 -85 -53t-22 -176v-307q0 -96 -11 -158t-29.5 -99.5t-43 -58t-51.5 -35.5q27 -16 51.5 -36.5t43 -59.5t29.5 -99.5t11 -154.5v-307q0 -123 21.5 -176 t85.5 -53h116v-29h-75q-41 0 -74 4t-55.5 32.5t-34.5 93t-12 185.5v299q0 41 -6.5 89.5t-25 89t-50 68.5t-80.5 30z" />
<glyph unicode="|" horiz-adv-x="450" d="M211 -475v1909h29v-1909h-29z" />
<glyph unicode="}" horiz-adv-x="555" d="M66 -274h116q63 0 85 53t22 176v383q0 70 14 117t34.5 78.5t44.5 50t42 28.5q-27 14 -51.5 35t-43 58.5t-29.5 99t-11 158.5v307q0 123 -21.5 176t-85.5 53h-116v29h75q33 0 65 -3t56.5 -24.5t39.5 -71t15 -143.5v-299v-58.5t4.5 -72.5t12.5 -77t26.5 -68.5t47 -51 t71.5 -22.5v-49q-66 -4 -98.5 -46t-47 -98.5t-15.5 -114t-1 -91.5v-299q0 -94 -15 -144.5t-39.5 -72t-56.5 -23.5t-65 -2h-75v29z" />
<glyph unicode="~" horiz-adv-x="966" d="M197 971q2 37 18 63.5t40 43t52.5 23.5t57.5 7q41 0 74.5 -21.5t66.5 -56.5q33 -37 57.5 -49t52.5 -12q16 0 38 5t42.5 17.5t36 34t19.5 55.5q6 -2 13 -2t13 -2q-2 -37 -18.5 -63.5t-40 -43t-52 -23.5t-57.5 -7q-41 0 -74.5 21.5t-66.5 56.5q-33 37 -57.5 49t-53.5 12 q-16 0 -37.5 -5t-42 -17.5t-36 -34t-19.5 -55.5q-6 2 -13 2t-13 2z" />
<glyph unicode="&#xa1;" horiz-adv-x="454" d="M188 991q0 16 12.5 28.5t26.5 12.5q16 0 28.5 -12t12.5 -29q0 -18 -12 -29.5t-29 -11.5q-14 0 -26.5 11.5t-12.5 29.5zM213 -430v1196h29v-1196h-29z" />
<glyph unicode="&#xa2;" horiz-adv-x="874" d="M104 385q0 82 31 155.5t85 127t126 85t156 31.5q72 0 136 -23.5t116 -64.5q-4 -6 -10.5 -11t-10.5 -11q-47 39 -106.5 60.5t-124.5 21.5q-78 0 -144.5 -29t-117 -80t-79 -118.5t-28.5 -143.5q0 -78 28.5 -144.5t79 -116.5t117 -79t144.5 -29q66 0 125 21.5t106 58.5 l21 -20q-53 -41 -117 -64.5t-135 -23.5q-84 0 -156 30.5t-126 85t-85 126t-31 155.5zM471 -139v1036h29v-1036h-29z" />
<glyph unicode="&#xa3;" horiz-adv-x="1150" d="M92 0v29h90q37 0 58.5 15t32 50t13.5 94.5t3 147.5v301h-133v29h133v358q0 143 89 208.5t236 65.5q137 0 208 -50t112 -132q-4 -4 -10 -6t-11 -6q-27 49 -53 81t-61 50t-79 26.5t-106 8.5q-86 0 -143 -19.5t-91 -52.5t-48.5 -76t-14.5 -90v-366h265v-29h-265v-332v-82 q0 -59 -9 -112t-38 -82h422h84q123 0 176.5 21.5t53.5 84.5v117h28v-76q0 -33 -3 -64.5t-24.5 -56t-70.5 -40t-143 -15.5h-701z" />
<glyph unicode="&#xa4;" horiz-adv-x="942" d="M188 469l84 84q-71 77 -71 186q0 51 17.5 96.5t47.5 82.5l-78 77l21 21l78 -78q35 35 83 54.5t101 19.5t101.5 -20.5t82.5 -55.5l78 78l21 -21l-78 -78q31 -35 48 -79.5t17 -96.5q0 -53 -19.5 -100t-51.5 -84l84 -84l-21 -20l-84 84q-74 -68 -178 -68q-51 0 -97 17.5 t-81 47.5l-84 -83zM229 739q0 -51 19.5 -95t52.5 -76.5t77 -52t93 -19.5t93 19.5t77 52t52.5 76.5t19.5 95t-19.5 95.5t-52.5 77t-77 52t-93 19.5t-93 -19.5t-77 -52t-52.5 -77t-19.5 -95.5z" />
<glyph unicode="&#xa5;" horiz-adv-x="1253" d="M74 1434h35q123 -207 247.5 -411t245.5 -413l27 -53q6 14 11 26.5t11 26.5l492 824h35l-537 -897v-537h-29v537q-135 225 -269 448t-269 449zM299 205v28h319v-28h-319zM299 539v28h307l10 -28h-317zM627 205v28h354v-28h-354zM635 539l4 28h342v-28h-346z" />
<glyph unicode="&#xa6;" horiz-adv-x="458" d="M215 240h29v-717h-29v717zM215 717v717h29v-717h-29z" />
<glyph unicode="&#xa7;" horiz-adv-x="731" d="M139 710q-6 46 5.5 89t38 79.5t67.5 61.5q55 31 116.5 28t114.5 -34q-35 55 -65.5 111.5t-63.5 113.5q-57 100 -63 151.5t14 84.5t66.5 57.5t81.5 42.5q4 -6 7 -12t7 -13q-27 -16 -51.5 -29.5t-51.5 -29.5q-53 -31 -45.5 -88t68.5 -164q45 -78 89 -154.5t89 -154.5 q25 -41 30 -86t-6.5 -88t-38 -79t-67.5 -60q-55 -33 -116.5 -31t-114.5 35q33 -57 65.5 -112.5t65.5 -113.5q29 -49 43 -87t19.5 -65.5t0 -47t-13.5 -35.5q-20 -35 -66.5 -59.5t-80.5 -40.5q-4 6 -7.5 12t-7.5 12q27 16 51.5 29.5t51.5 29.5q53 31 45.5 88.5t-68.5 163.5 l-178 308q-25 41 -31 87zM167 731q3 -51 28 -94q31 -55 85 -80t113 -20q43 4 77 25.5t56.5 52t33.5 69.5t5 76q-6 45 -27.5 79.5t-53 58.5t-69.5 34t-75 8q-59 -6 -98 -38t-58.5 -76t-16.5 -95z" />
<glyph unicode="&#xa8;" horiz-adv-x="757" d="M168 1024q0 16 12.5 28.5t28.5 12.5t28.5 -12.5t12.5 -28.5t-12.5 -28.5t-28.5 -12.5t-28.5 12.5t-12.5 28.5zM506 1024q0 16 12 28.5t29 12.5q16 0 28.5 -12.5t12.5 -28.5t-12.5 -28.5t-28.5 -12.5t-28.5 12.5t-12.5 28.5z" />
<glyph unicode="&#xa9;" horiz-adv-x="1359" d="M158 762q0 113 40 209t110.5 165.5t165.5 108.5t206 39t206 -39t165.5 -108.5t110.5 -166t40 -208.5q0 -113 -40 -208t-110.5 -165t-165.5 -108.5t-206 -38.5t-206 38.5t-165.5 108.5t-110.5 165t-40 208zM186 760q0 -104 39 -193.5t106.5 -156t157 -103.5t189.5 -37 q102 0 192.5 37t158 103.5t106.5 155.5t39 194q0 106 -39 197.5t-106.5 158t-158 103t-192.5 36.5q-100 0 -189.5 -36.5t-157 -103t-106.5 -158t-39 -197.5zM369 766q0 70 25.5 131t70.5 106.5t105.5 71t127.5 25.5q90 0 170 -45q-4 -4 -8 -13q-74 45 -162 45 q-66 0 -123 -25.5t-100 -68.5t-68.5 -102.5t-25.5 -126.5q0 -63 22.5 -119.5t62.5 -99.5t97.5 -68.5t128.5 -25.5q47 0 89 11t77 32l8 -11q-37 -23 -79 -35t-91 -12q-74 0 -134 26.5t-103 72t-66.5 104.5t-23.5 127z" />
<glyph unicode="&#xaa;" horiz-adv-x="868" d="M123 905q0 59 22.5 111.5t61.5 91.5t91 61.5t112 22.5q92 0 162.5 -51t103.5 -129q0 41 2 84t4 84h14v-553h-20v80q0 23 1 46t1 46q-31 -80 -103.5 -130.5t-164.5 -50.5q-59 0 -111.5 23t-91.5 61.5t-61.5 91t-22.5 111.5zM143 905q0 -55 20.5 -104t56.5 -85t85 -56.5 t105 -20.5q55 0 103 20.5t85 56.5t57.5 85t20.5 104t-20.5 103.5t-57.5 85t-85 57t-103 20.5t-104.5 -20.5t-85.5 -57t-56.5 -85t-20.5 -103.5z" />
<glyph unicode="&#xab;" horiz-adv-x="935" d="M102 489q88 84 175.5 165t175.5 165v-35q-72 -74 -146 -147.5t-145 -147.5q72 -76 145.5 -149.5t145.5 -149.5v-32zM453 489q88 84 175 165t175 165v-35q-72 -74 -145.5 -147.5t-145.5 -147.5q72 -76 145.5 -149.5t145.5 -149.5v-32z" />
<glyph unicode="&#xac;" horiz-adv-x="1136" d="M231 465v29h738v-191h-29v162h-709z" />
<glyph unicode="&#xad;" horiz-adv-x="671" d="M147 377v29h377v-29h-377z" />
<glyph unicode="&#xae;" horiz-adv-x="1359" d="M158 762q0 113 40 209t110.5 165.5t165.5 108.5t206 39t206 -39t165.5 -108.5t110.5 -166t40 -208.5q0 -113 -40 -208t-110.5 -165t-165.5 -108.5t-206 -38.5t-206 38.5t-165.5 108.5t-110.5 165t-40 208zM186 760q0 -104 39 -193.5t106.5 -156t157 -103.5t189.5 -37 q102 0 192.5 37t158 103.5t106.5 155.5t39 194q0 106 -39 197.5t-106.5 158t-158 103t-192.5 36.5q-100 0 -189.5 -36.5t-157 -103t-106.5 -158t-39 -197.5zM549 430v678h137q27 0 60.5 -9t63.5 -29.5t49.5 -55.5t19.5 -84q0 -37 -12.5 -71t-38 -59.5t-64.5 -42t-92 -16.5 h-109v-311h-14zM563 754h111q55 0 92 18.5t58.5 46t30.5 59t9 56.5q0 72 -54 116t-134 44h-113v-340zM739 756h15l196 -326h-18z" />
<glyph unicode="&#xaf;" horiz-adv-x="817" d="M174 1008v28h471v-28h-471z" />
<glyph unicode="&#xb0;" horiz-adv-x="591" d="M139 1145q0 68 45 113t113 45q66 0 111 -45.5t45 -112.5q0 -66 -45.5 -110t-110.5 -44q-68 0 -113 44t-45 110zM168 1147q0 -53 38 -90t91 -37t90 37t37 90t-37 90t-90 37t-91 -37t-38 -90z" />
<glyph unicode="&#xb1;" horiz-adv-x="1159" d="M211 279v28h737v-28h-737zM211 788v29h354v352h29v-352h354v-29h-354v-356h-29v356h-354z" />
<glyph unicode="&#xb2;" horiz-adv-x="706" d="M158 1243q0 80 46 135.5t134 55.5q78 0 128 -55.5t50 -141.5q0 -59 -29.5 -116.5t-77 -115t-103.5 -113t-109 -110.5h364v-14h-401q66 61 127 122.5t109 120t77 113t29 101.5q0 57 -16.5 94t-41 59.5t-53.5 31.5t-53 9q-49 0 -82 -17.5t-51.5 -44t-25.5 -57t-7 -57.5 q0 -72 41 -117q-4 -2 -10 -8q-23 25 -34 54.5t-11 70.5z" />
<glyph unicode="&#xb3;" horiz-adv-x="620" d="M139 838q2 4 11 12q25 -29 60.5 -47.5t76.5 -18.5q39 0 74.5 15.5t62.5 41t42 60.5t15 74t-15 73.5t-42 61.5t-62.5 41t-74.5 14q-33 1 -62 -22q53 70 106.5 138.5t106.5 137.5h-288v15h321q-51 -63 -101.5 -127t-99.5 -127q45 2 86 -12.5t72 -42t49.5 -66.5t18.5 -84 q0 -43 -16.5 -80t-45 -64.5t-65.5 -44t-80 -16.5q-45 0 -83 18.5t-67 49.5z" />
<glyph unicode="&#xb4;" horiz-adv-x="446" d="M205 981q47 68 92 136.5t92 135.5h33q-47 -68 -92 -136t-92 -136h-33z" />
<glyph unicode="&#xb5;" horiz-adv-x="1021" d="M203 215v553h28v-567q4 -74 54.5 -128.5t140.5 -58.5q70 0 132.5 22.5t109.5 62.5t75.5 96.5t28.5 121.5v451h29v-768h-21l-2 201q-41 -98 -132 -156.5t-206 -58.5q-109 0 -171 63.5t-66 165.5zM205 221h26v-633h-26v633z" />
<glyph unicode="&#xb6;" horiz-adv-x="1032" d="M84 1200q0 70 25.5 131.5t70.5 106.5t106.5 71.5t131.5 26.5h362v-1536h-28v1507h-306v-1507h-28v866q-70 0 -131.5 26t-106.5 71t-70.5 106t-25.5 131z" />
<glyph unicode="&#xb7;" horiz-adv-x="376" d="M147 573q0 16 12.5 28.5t28.5 12.5t28.5 -12t12.5 -29q0 -16 -12 -28.5t-29 -12.5q-16 0 -28.5 12.5t-12.5 28.5z" />
<glyph unicode="&#xb8;" horiz-adv-x="925" d="M256 -338q8 2 15.5 4t15.5 4q12 -43 48 -70.5t87 -27.5q63 0 103 42t40 105q0 57 -26.5 88t-58 52.5t-58.5 44t-27 63.5v33h29v-12q0 -53 28.5 -75t55.5 -38q47 -31 66.5 -68.5t19.5 -66.5q0 -104 -52.5 -150.5t-119.5 -46.5q-53 0 -99.5 30t-66.5 89z" />
<glyph unicode="&#xb9;" horiz-adv-x="382" d="M96 1421v13h119v-613h-14v600h-105z" />
<glyph unicode="&#xba;" horiz-adv-x="821" d="M123 905q0 59 22.5 111.5t61.5 92.5t91 62.5t112 22.5q59 0 112 -22.5t92 -62.5t61.5 -92t22.5 -112q0 -59 -22.5 -111.5t-61.5 -91t-92 -61.5t-112 -23t-111.5 23t-91.5 61.5t-61.5 91t-22.5 111.5zM143 905q0 -55 20.5 -104t57.5 -85t85 -56.5t104 -20.5q55 0 103 20.5 t85 56.5t57.5 85t20.5 104t-20.5 103.5t-57.5 85t-85 57t-103 20.5t-103.5 -20.5t-85.5 -57t-57.5 -85t-20.5 -103.5z" />
<glyph unicode="&#xbb;" horiz-adv-x="937" d="M133 158v32q72 76 145.5 150t145.5 149q-72 74 -145.5 148t-145.5 147v35q88 -84 175 -165t175 -165zM483 158v32q72 76 145.5 150t145.5 149q-72 74 -145.5 148t-145.5 147v35q88 -84 175 -165t176 -165z" />
<glyph unicode="&#xbc;" horiz-adv-x="1611" d="M78 1403v20h184v-944h-20v924h-164zM399 -39q143 389 284.5 772t285.5 772h28q-143 -389 -284.5 -772t-284.5 -772h-29zM821 279q141 182 279.5 362t277.5 363v-703h148v-22h-148v-279h-20v279h-537zM868 301h490v639q-123 -160 -245 -319.5t-245 -319.5z" />
<glyph unicode="&#xbd;" horiz-adv-x="1701" d="M78 1403v20h184v-944h-20v924h-164zM434 -39q143 389 284.5 772t285.5 772h28q-143 -389 -284.5 -772t-284.5 -772h-29zM1034 678q0 117 66.5 195.5t191.5 78.5q115 0 184.5 -78.5t69.5 -201.5q0 -84 -43 -167t-109.5 -165t-146 -162t-155.5 -158h520v-20h-574 q94 90 182.5 177t156 170t108.5 161t41 145q0 82 -22.5 135.5t-57.5 85t-76 45t-78 13.5q-72 0 -118 -25.5t-72.5 -63.5t-36.5 -83t-10 -82q0 -100 59 -164q-6 -4 -14 -12q-31 35 -48.5 75.5t-17.5 100.5z" />
<glyph unicode="&#xbe;" horiz-adv-x="2025" d="M119 514q4 4 7 10t7 11q39 -47 94.5 -75t120.5 -28q61 0 117.5 23.5t97.5 64.5t65.5 95.5t24.5 115.5t-24.5 115.5t-65.5 94.5t-97 63.5t-118 23.5q-51 0 -96 -35q86 111 168 217.5t168 216.5h-455v23h504l-313 -399q72 4 135 -18.5t111 -65.5t77 -103.5t29 -132.5 q0 -68 -25.5 -126t-69.5 -101t-102.5 -68.5t-126.5 -25.5q-72 0 -131 28.5t-102 75.5zM745 -39q143 389 284.5 773t285.5 773h28q-143 -389 -284 -773t-285 -773h-29zM1237 279q139 182 277.5 362t279.5 363v-703h150v-22h-150v-279h-20v279h-537zM1282 301h492v639z" />
<glyph unicode="&#xbf;" horiz-adv-x="989" d="M129 4q0 111 54.5 194t146.5 148q39 29 73.5 48.5t60 44t40 63.5t14.5 106v160h29v-199q0 -63 -23.5 -101t-61.5 -67.5t-86 -59.5t-97 -73q-63 -55 -92 -121.5t-29 -142.5q0 -80 28.5 -147.5t78.5 -117.5t119 -78t146 -28q61 0 116.5 18.5t103 51.5t81.5 79t52 101 q6 -2 13 -3t13 -3q-41 -119 -143 -195.5t-236 -76.5q-84 0 -157.5 31.5t-128 86t-85 127t-30.5 154.5zM492 1012q0 16 12 28.5t28 12.5q14 0 26.5 -12.5t12.5 -28.5q0 -18 -12 -29.5t-27 -11.5q-16 0 -28 11t-12 30z" />
<glyph unicode="&#xc0;" horiz-adv-x="1310" d="M61 0h31q145 346 272.5 691t272.5 691q4 12 9 25.5t9 26.5q4 -12 9.5 -25.5t9.5 -26.5q145 -346 272 -691t273 -691h30q-158 375 -297 749.5t-297 749.5q-158 -375 -297 -749.5t-297 -749.5zM340 651h633v29h-633v-29zM455 1808h32q47 -68 92.5 -136t92.5 -136h-33 q-47 68 -92 136.5t-92 135.5z" />
<glyph unicode="&#xc1;" horiz-adv-x="1310" d="M61 0h31q145 346 272.5 691t272.5 691q4 12 9 25.5t9 26.5q4 -12 9.5 -25.5t9.5 -26.5q145 -346 272 -691t273 -691h30q-158 375 -297 749.5t-297 749.5q-158 -375 -297 -749.5t-297 -749.5zM340 651h633v29h-633v-29zM639 1536q47 68 92 136.5t92 135.5h33 q-47 -68 -92 -136t-92 -136h-33z" />
<glyph unicode="&#xc2;" horiz-adv-x="1310" d="M61 0h31q145 346 272.5 691t272.5 691q4 12 9 25.5t9 26.5q4 -12 9.5 -25.5t9.5 -26.5q145 -346 272 -691t273 -691h30q-158 375 -297 749.5t-297 749.5q-158 -375 -297 -749.5t-297 -749.5zM340 651h633v29h-633v-29zM494 1536q61 92 122.5 185.5t122.5 185.5 q61 -92 123 -185.5t123 -185.5h-33q-53 78 -106 158t-107 157q-53 -78 -106 -157.5t-107 -157.5h-32z" />
<glyph unicode="&#xc3;" horiz-adv-x="1310" d="M61 0h31q145 346 272.5 691t272.5 691q4 12 9 25.5t9 26.5q4 -12 9.5 -25.5t9.5 -26.5q145 -346 272 -691t273 -691h30q-158 375 -297 749.5t-297 749.5q-158 -375 -297 -749.5t-297 -749.5zM340 651h633v29h-633v-29zM367 1561q2 37 18 63.5t40 42.5t52.5 23.5t57.5 7.5 q41 0 74.5 -21.5t66.5 -56.5q33 -37 57.5 -49t52.5 -12q16 0 38 5t42.5 17t36 33.5t19.5 56.5q6 -2 13 -2t13 -2q-2 -37 -18.5 -63.5t-40 -43t-52 -23.5t-57.5 -7q-41 0 -74.5 21.5t-66.5 56.5q-33 37 -57.5 49t-53.5 12q-16 0 -37.5 -5t-42 -17.5t-36 -34t-19.5 -56.5 q-6 2 -13 2.5t-13 2.5z" />
<glyph unicode="&#xc4;" horiz-adv-x="1310" d="M61 0h31q145 346 272.5 691t272.5 691q4 12 9 25.5t9 26.5q4 -12 9.5 -25.5t9.5 -26.5q145 -346 272 -691t273 -691h30q-158 375 -297 749.5t-297 749.5q-158 -375 -297 -749.5t-297 -749.5zM340 651h633v29h-633v-29zM449 1618q0 16 12 28.5t28 12.5t28.5 -12.5 t12.5 -28.5t-12 -28.5t-29 -12.5q-16 0 -28 12.5t-12 28.5zM786 1618q0 16 12.5 28.5t28.5 12.5t28.5 -12.5t12.5 -28.5t-12 -28.5t-29 -12.5q-16 0 -28.5 12.5t-12.5 28.5z" />
<glyph unicode="&#xc5;" horiz-adv-x="1310" d="M61 0q158 375 297.5 749.5t296.5 749.5q158 -375 297.5 -749.5t296.5 -749.5h-30q-145 346 -272.5 691t-272.5 691q-4 12 -9.5 25.5t-9.5 26.5q-4 -12 -9 -25.5t-9 -26.5q-145 -346 -272 -691t-273 -691h-31zM340 651h633v29h-633v-29zM528 1708q0 55 37 92t92 37t92 -37 t37 -92t-36.5 -92t-92.5 -37q-55 0 -92 37t-37 92zM557 1708q0 -41 29.5 -70.5t70.5 -29.5t71 29.5t30 70.5t-30 70.5t-71 29.5t-70.5 -29.5t-29.5 -70.5z" />
<glyph unicode="&#xc6;" horiz-adv-x="1280" d="M63 0q80 186 149 363.5t135.5 352.5t135 352t148.5 366h26q-4 -12 -9 -25.5t-9 -26.5q-145 -346 -272 -691t-273 -691h-31zM342 651v29h305v-29h-305zM631 0v1434h522v-29h-494v-668h414v-28h-414v-680h523v-29h-551z" />
<glyph unicode="&#xc7;" horiz-adv-x="1329" d="M125 709q0 156 57.5 291t156.5 235t232.5 157.5t284.5 57.5q104 0 197.5 -26.5t177.5 -75.5q-4 -6 -8 -12.5t-9 -12.5q-78 47 -169 72.5t-189 25.5q-145 0 -273 -55t-223.5 -152.5t-150.5 -227.5t-55 -279q0 -139 49 -265.5t139 -221.5t217 -151.5t283 -56.5 q106 0 197 25.5t171 73.5l19 -25q-82 -47 -175 -74.5t-204 -27.5q-164 0 -297 58t-228.5 156.5t-147.5 230.5t-52 280zM688 -338q8 2 15.5 4t15.5 4q12 -43 48 -70.5t87 -27.5q63 0 103 42t40 105q0 57 -26.5 88t-58 52.5t-58.5 44t-27 63.5v33h29v-12q0 -53 28.5 -75 t55.5 -38q47 -31 66.5 -68.5t19.5 -66.5q0 -104 -52 -150.5t-120 -46.5q-53 0 -99 30t-67 89z" />
<glyph unicode="&#xc8;" horiz-adv-x="1245" d="M244 0v1434h850v-29h-822v-668h742v-28h-742v-680h850v-29h-878zM549 1808h33q47 -68 92 -136t92 -136h-33q-47 68 -92 136.5t-92 135.5z" />
<glyph unicode="&#xc9;" horiz-adv-x="1245" d="M244 0v1434h850v-29h-822v-668h742v-28h-742v-680h850v-29h-878zM647 1536q47 68 92 136.5t92 135.5h33q-47 -68 -92 -136t-92 -136h-33z" />
<glyph unicode="&#xca;" horiz-adv-x="1245" d="M244 0v1434h850v-29h-822v-668h742v-28h-742v-680h850v-29h-878zM428 1536q61 92 123 185.5t123 185.5q61 -92 122.5 -185.5t123.5 -185.5h-33q-53 78 -106.5 158t-106.5 157q-53 -78 -106.5 -157.5t-106.5 -157.5h-33z" />
<glyph unicode="&#xcb;" horiz-adv-x="1245" d="M244 0v1434h850v-29h-822v-668h742v-28h-742v-680h850v-29h-878zM477 1618q0 16 12.5 28.5t28.5 12.5t28.5 -12.5t12.5 -28.5t-12 -28.5t-29 -12.5q-16 0 -28.5 12.5t-12.5 28.5zM815 1618q0 16 12.5 28.5t28.5 12.5t28.5 -12.5t12.5 -28.5t-12.5 -28.5t-28.5 -12.5 t-28.5 12.5t-12.5 28.5z" />
<glyph unicode="&#xcc;" horiz-adv-x="516" d="M84 1808h33q47 -68 92 -136t92 -136h-33q-47 68 -92 136.5t-92 135.5zM244 0v1434h28v-1434h-28z" />
<glyph unicode="&#xcd;" horiz-adv-x="516" d="M213 1536q47 68 92 136.5t92 135.5h33q-47 -68 -92 -136t-92 -136h-33zM244 0v1434h28v-1434h-28z" />
<glyph unicode="&#xce;" horiz-adv-x="516" d="M14 1536q61 92 123 185.5t123 185.5q61 -92 122.5 -185.5t123.5 -185.5h-33q-53 78 -106.5 158t-106.5 157q-53 -78 -106.5 -157.5t-106.5 -157.5h-33zM244 0v1434h28v-1434h-28z" />
<glyph unicode="&#xcf;" horiz-adv-x="516" d="M49 1618q0 16 12.5 28.5t28.5 12.5t28.5 -12.5t12.5 -28.5t-12.5 -28.5t-28.5 -12.5t-28.5 12.5t-12.5 28.5zM244 0v1434h28v-1434h-28zM387 1618q0 16 12.5 28.5t28.5 12.5t28.5 -12.5t12.5 -28.5t-12.5 -28.5t-28.5 -12.5t-28.5 12.5t-12.5 28.5z" />
<glyph unicode="&#xd0;" horiz-adv-x="1470" d="M139 709v28h576v-28h-576zM258 0v1434h293q217 0 367.5 -67t244.5 -171t136 -231t42 -248q0 -164 -57 -297t-155.5 -226.5t-229.5 -143.5t-278 -50h-363zM287 29h346q137 0 261 48t218 137t148.5 217t54.5 286q0 117 -40 237.5t-129 221t-231.5 164t-345.5 63.5h-282 v-1374z" />
<glyph unicode="&#xd1;" horiz-adv-x="1654" d="M242 0v1499q147 -186 286.5 -367.5t274.5 -360.5t270 -356t277 -358q10 -14 19 -26.5t20 -26.5q-2 16 -3.5 32.5t-3.5 33.5v1364h29v-1500q-293 367 -566.5 724.5t-541.5 713.5q-10 14 -19.5 26.5t-19.5 26.5q2 -16 3 -32.5t3 -32.5v-1360h-28zM567 1571q2 37 18.5 63.5 t40 43t52.5 23.5t57 7q41 0 75 -21.5t67 -56.5q33 -37 57 -49t53 -12q16 0 38 5t42 17.5t35.5 34t19.5 55.5q6 -2 13.5 -2t13.5 -2q-2 -37 -18.5 -63.5t-40 -43t-52 -23.5t-57.5 -7q-41 0 -74.5 21.5t-66.5 56.5q-33 37 -57.5 49t-53.5 12q-16 0 -37.5 -5t-42 -17t-36 -33.5 t-19.5 -56.5q-6 2 -13.5 2t-13.5 2z" />
<glyph unicode="&#xd2;" horiz-adv-x="1716" d="M125 715q0 152 57.5 286t156.5 233t232.5 157.5t284.5 58.5q152 0 286 -58.5t233.5 -157.5t157.5 -233.5t58 -285.5q0 -152 -58 -285t-157.5 -232.5t-233.5 -156.5t-286 -57t-285 57t-232 156.5t-156.5 232.5t-57.5 285zM154 713q0 -145 55 -272.5t149.5 -222.5 t221.5 -150.5t270 -55.5q145 0 275 55.5t227.5 150.5t154 223t56.5 274q0 145 -56.5 273t-153 224.5t-224.5 152.5t-273 56t-273 -56t-223.5 -152.5t-150.5 -225.5t-55 -274zM651 1808h33q47 -68 92 -136t92 -136h-32q-47 68 -92.5 136.5t-92.5 135.5z" />
<glyph unicode="&#xd3;" horiz-adv-x="1716" d="M125 715q0 152 57.5 286t156.5 233t232.5 157.5t284.5 58.5q152 0 286 -58.5t233.5 -157.5t157.5 -233.5t58 -285.5q0 -152 -58 -285t-157.5 -232.5t-233.5 -156.5t-286 -57t-285 57t-232 156.5t-156.5 232.5t-57.5 285zM154 713q0 -145 55 -272.5t149.5 -222.5 t221.5 -150.5t270 -55.5q145 0 275 55.5t227.5 150.5t154 223t56.5 274q0 145 -56.5 273t-153 224.5t-224.5 152.5t-273 56t-273 -56t-223.5 -152.5t-150.5 -225.5t-55 -274zM799 1536q47 68 92 136.5t92 135.5h33q-47 -68 -92 -136t-93 -136h-32z" />
<glyph unicode="&#xd4;" horiz-adv-x="1716" d="M125 715q0 152 57.5 286t156.5 233t232.5 157.5t284.5 58.5q152 0 286 -58.5t233.5 -157.5t157.5 -233.5t58 -285.5q0 -152 -58 -285t-157.5 -232.5t-233.5 -156.5t-286 -57t-285 57t-232 156.5t-156.5 232.5t-57.5 285zM154 713q0 -145 55 -272.5t149.5 -222.5 t221.5 -150.5t270 -55.5q145 0 275 55.5t227.5 150.5t154 223t56.5 274q0 145 -56.5 273t-153 224.5t-224.5 152.5t-273 56t-273 -56t-223.5 -152.5t-150.5 -225.5t-55 -274zM586 1536q61 92 122.5 185.5t122.5 185.5q61 -92 123 -185.5t123 -185.5h-33q-53 78 -106 158 t-107 157q-53 -78 -106 -157.5t-107 -157.5h-32z" />
<glyph unicode="&#xd5;" horiz-adv-x="1716" d="M125 715q0 152 57.5 286t156.5 233t232.5 157.5t284.5 58.5q152 0 286 -58.5t233.5 -157.5t157.5 -233.5t58 -285.5q0 -152 -58 -285t-157.5 -232.5t-233.5 -156.5t-286 -57t-285 57t-232 156.5t-156.5 232.5t-57.5 285zM154 713q0 -145 55 -272.5t149.5 -222.5 t221.5 -150.5t270 -55.5q145 0 275 55.5t227.5 150.5t154 223t56.5 274q0 145 -56.5 273t-153 224.5t-224.5 152.5t-273 56t-273 -56t-223.5 -152.5t-150.5 -225.5t-55 -274zM539 1640q2 37 18 64t40 43t52.5 23.5t57.5 7.5q41 0 74.5 -21.5t66.5 -56.5q33 -37 57.5 -49.5 t52.5 -12.5q16 0 38 5.5t42.5 17.5t36 33.5t19.5 56.5q6 -2 13 -2t13 -2q-2 -37 -18.5 -63.5t-40 -43t-52 -23.5t-57.5 -7q-41 0 -74.5 21.5t-66.5 56.5q-33 37 -57.5 49t-53.5 12q-16 0 -37.5 -5t-42 -17.5t-36 -34t-19.5 -56.5q-6 2 -13 2t-13 2z" />
<glyph unicode="&#xd6;" horiz-adv-x="1716" d="M125 715q0 152 57.5 286t156.5 233t232.5 157.5t284.5 58.5q152 0 286 -58.5t233.5 -157.5t157.5 -233.5t58 -285.5q0 -152 -58 -285t-157.5 -232.5t-233.5 -156.5t-286 -57t-285 57t-232 156.5t-156.5 232.5t-57.5 285zM154 713q0 -145 55 -272.5t149.5 -222.5 t221.5 -150.5t270 -55.5q145 0 275 55.5t227.5 150.5t154 223t56.5 274q0 145 -56.5 273t-153 224.5t-224.5 152.5t-273 56t-273 -56t-223.5 -152.5t-150.5 -225.5t-55 -274zM629 1618q0 16 12 28.5t29 12.5q16 0 28.5 -12.5t12.5 -28.5t-12.5 -28.5t-28.5 -12.5t-28.5 12.5 t-12.5 28.5zM967 1618q0 16 12 28.5t29 12.5q16 0 28.5 -12.5t12.5 -28.5t-12.5 -28.5t-28.5 -12.5t-28.5 12.5t-12.5 28.5z" />
<glyph unicode="&#xd7;" horiz-adv-x="872" d="M164 20q63 63 124.5 126t125.5 126l-248 248l20 21l248 -248q63 63 126 124.5t126 125.5l21 -21q-63 -63 -126 -124.5t-126 -125.5l252 -252l-21 -20l-252 252q-63 -63 -124.5 -126t-125.5 -126z" />
<glyph unicode="&#xd8;" horiz-adv-x="1714" d="M121 715q0 152 57.5 286t156.5 233t232 157.5t285 58.5t286 -58.5t233 -157.5t157.5 -233.5t58.5 -285.5q0 -152 -58.5 -285t-157.5 -232.5t-233 -156.5t-286 -57t-285 57t-232 156.5t-156.5 232.5t-57.5 285zM150 713q0 -145 55 -272.5t149.5 -222.5t221 -150.5 t270.5 -55.5q145 0 275 55.5t227.5 150.5t154 223t56.5 274q0 145 -56.5 273t-153 224.5t-224.5 152.5t-273 56t-273 -56t-223.5 -152.5t-150.5 -225.5t-55 -274zM207 16q72 86 169 203t208.5 249t228.5 272.5t228.5 272.5t209 249.5t168.5 203.5l17 -16 q-72 -86 -169.5 -203t-209 -250t-228 -272t-228.5 -272.5t-209 -250t-169 -202.5z" />
<glyph unicode="&#xd9;" horiz-adv-x="1368" d="M223 463v971h29v-965q0 -111 31.5 -196t89 -143t137.5 -88t174 -30q92 0 172 30t137.5 88t90 143t32.5 196v965h29v-971q0 -117 -36 -207t-97.5 -150.5t-145.5 -91t-182 -30.5t-183 30.5t-146.5 91t-96.5 150.5t-35 207zM512 1808h33q47 -68 92 -136t92 -136h-33 q-47 68 -92 136.5t-92 135.5z" />
<glyph unicode="&#xda;" horiz-adv-x="1368" d="M223 463v971h29v-965q0 -111 31.5 -196t89 -143t137.5 -88t174 -30q92 0 172 30t137.5 88t90 143t32.5 196v965h29v-971q0 -117 -36 -207t-97.5 -150.5t-145.5 -91t-182 -30.5t-183 30.5t-146.5 91t-96.5 150.5t-35 207zM649 1536q47 68 92 136.5t93 135.5h32 q-47 -68 -92 -136t-92 -136h-33z" />
<glyph unicode="&#xdb;" horiz-adv-x="1368" d="M223 463v971h29v-965q0 -111 31.5 -196t89 -143t137.5 -88t174 -30q92 0 172 30t137.5 88t90 143t32.5 196v965h29v-971q0 -117 -36 -207t-97.5 -150.5t-145.5 -91t-182 -30.5t-183 30.5t-146.5 91t-96.5 150.5t-35 207zM457 1536q61 92 122.5 185.5t122.5 185.5 q61 -92 123 -185.5t123 -185.5h-33q-53 78 -106 158t-107 157q-53 -78 -106 -157.5t-107 -157.5h-32z" />
<glyph unicode="&#xdc;" horiz-adv-x="1368" d="M223 463v971h29v-965q0 -111 31.5 -196t89 -143t137.5 -88t174 -30q92 0 172 30t137.5 88t90 143t32.5 196v965h29v-971q0 -117 -36 -207t-97.5 -150.5t-145.5 -91t-182 -30.5t-183 30.5t-146.5 91t-96.5 150.5t-35 207zM500 1618q0 16 12 28.5t29 12.5q16 0 28.5 -12.5 t12.5 -28.5t-12.5 -28.5t-28.5 -12.5t-28.5 12.5t-12.5 28.5zM838 1618q0 16 12 28.5t29 12.5q16 0 28.5 -12.5t12.5 -28.5t-12.5 -28.5t-28.5 -12.5t-28.5 12.5t-12.5 28.5z" />
<glyph unicode="&#xdd;" horiz-adv-x="1216" d="M55 1434h35q123 -207 248 -411t246 -413l26 -53q6 14 11.5 26.5t11.5 26.5l491 824h35l-536 -897v-537h-29v537q-135 225 -269.5 448t-269.5 449zM596 1536q47 68 92 136.5t92 135.5h33q-47 -68 -92 -136t-92 -136h-33z" />
<glyph unicode="&#xde;" horiz-adv-x="1024" d="M244 0v1434h28v-338h258q59 0 131 -19.5t133.5 -63.5t103.5 -116t42 -178q0 -78 -25.5 -149.5t-79 -127t-136.5 -89.5t-197 -34h-230v-319h-28zM272 348h236q119 0 196.5 38t123.5 94.5t64.5 122t18.5 120.5q0 78 -30.5 141.5t-85 108.5t-127 69.5t-158.5 24.5h-238v-719 z" />
<glyph unicode="&#xdf;" horiz-adv-x="1081" d="M59 758v28h134v86q0 229 91 349t246 127q96 -2 160 -27t100.5 -64.5t52 -90t15.5 -101.5q0 -104 -51 -170t-137 -98q68 -16 126 -53t101 -89.5t67.5 -117t24.5 -138.5q0 -86 -33.5 -161.5t-90 -132t-133.5 -89t-163 -32.5q-59 0 -114.5 16t-102.5 45q4 6 6 11t7 12 q90 -57 200 -58q82 0 154 32t125 85t85 124t32 148q0 78 -31 146.5t-83 121t-124 83t-152 30.5v15v16q53 0 100.5 17.5t82 49t55 76.5t20.5 101q0 49 -17 97t-51 85t-87 59.5t-123 22.5q-164 0 -247 -120t-83 -318v-881h-28v758h-134z" />
<glyph unicode="&#xe0;" d="M92 385q0 82 31 155.5t85 127t126 85t155 31.5q127 0 226.5 -70.5t144.5 -181.5q0 59 2 118t6 118h21v-768h-29v111q0 33 1 64.5t1 64.5q-23 -55 -59.5 -101.5t-84.5 -80t-106.5 -52t-122.5 -18.5q-84 0 -155.5 30.5t-125.5 85t-85 126t-31 155.5zM121 385 q0 -78 28.5 -144.5t79 -116.5t117 -79t143.5 -29q76 0 143.5 29t119 79t80 116.5t28.5 144.5q0 76 -28.5 143.5t-80 118.5t-119 80t-143.5 29q-78 0 -144 -29t-116.5 -80t-79 -118.5t-28.5 -143.5zM346 1253h33q47 -68 92 -136t92 -136h-33q-47 68 -92 136.5t-92 135.5z" />
<glyph unicode="&#xe1;" d="M92 385q0 82 31 155.5t85 127t126 85t155 31.5q127 0 226.5 -70.5t144.5 -181.5q0 59 2 118t6 118h21v-768h-29v111q0 33 1 64.5t1 64.5q-23 -55 -59.5 -101.5t-84.5 -80t-106.5 -52t-122.5 -18.5q-84 0 -155.5 30.5t-125.5 85t-85 126t-31 155.5zM121 385 q0 -78 28.5 -144.5t79 -116.5t117 -79t143.5 -29q76 0 143.5 29t119 79t80 116.5t28.5 144.5q0 76 -28.5 143.5t-80 118.5t-119 80t-143.5 29q-78 0 -144 -29t-116.5 -80t-79 -118.5t-28.5 -143.5zM506 981q47 68 92 136.5t92 135.5h33q-47 -68 -92 -136t-92 -136h-33z" />
<glyph unicode="&#xe2;" d="M92 385q0 82 31 155.5t85 127t126 85t155 31.5q127 0 226.5 -70.5t144.5 -181.5q0 59 2 118t6 118h21v-768h-29v111q0 33 1 64.5t1 64.5q-23 -55 -59.5 -101.5t-84.5 -80t-106.5 -52t-122.5 -18.5q-84 0 -155.5 30.5t-125.5 85t-85 126t-31 155.5zM121 385 q0 -78 28.5 -144.5t79 -116.5t117 -79t143.5 -29q76 0 143.5 29t119 79t80 116.5t28.5 144.5q0 76 -28.5 143.5t-80 118.5t-119 80t-143.5 29q-78 0 -144 -29t-116.5 -80t-79 -118.5t-28.5 -143.5zM319 979q61 92 123 185.5t123 185.5q61 -92 123 -185.5t123 -185.5h-33 q-53 78 -106.5 158t-106.5 157q-53 -78 -106 -157.5t-107 -157.5h-33z" />
<glyph unicode="&#xe3;" d="M92 385q0 82 31 155.5t85 127t126 85t155 31.5q127 0 226.5 -70.5t144.5 -181.5q0 59 2 118t6 118h21v-768h-29v111q0 33 1 64.5t1 64.5q-23 -55 -59.5 -101.5t-84.5 -80t-106.5 -52t-122.5 -18.5q-84 0 -155.5 30.5t-125.5 85t-85 126t-31 155.5zM121 385 q0 -78 28.5 -144.5t79 -116.5t117 -79t143.5 -29q76 0 143.5 29t119 79t80 116.5t28.5 144.5q0 76 -28.5 143.5t-80 118.5t-119 80t-143.5 29q-78 0 -144 -29t-116.5 -80t-79 -118.5t-28.5 -143.5zM289 971q2 37 18.5 63.5t40 43t52 23.5t57.5 7q41 0 74.5 -21.5t66.5 -56.5 q33 -37 57.5 -49t53.5 -12q16 0 37.5 5t42 17.5t36 34t19.5 55.5q6 -2 13 -2t13 -2q-2 -37 -18 -63.5t-40 -43t-52.5 -23.5t-57.5 -7q-41 0 -74.5 21.5t-66.5 56.5q-33 37 -57.5 49t-52.5 12q-16 0 -38 -5t-42.5 -17.5t-36 -34t-19.5 -55.5q-6 2 -13 2t-13 2z" />
<glyph unicode="&#xe4;" d="M92 385q0 82 31 155.5t85 127t126 85t155 31.5q127 0 226.5 -70.5t144.5 -181.5q0 59 2 118t6 118h21v-768h-29v111q0 33 1 64.5t1 64.5q-23 -55 -59.5 -101.5t-84.5 -80t-106.5 -52t-122.5 -18.5q-84 0 -155.5 30.5t-125.5 85t-85 126t-31 155.5zM121 385 q0 -78 28.5 -144.5t79 -116.5t117 -79t143.5 -29q76 0 143.5 29t119 79t80 116.5t28.5 144.5q0 76 -28.5 143.5t-80 118.5t-119 80t-143.5 29q-78 0 -144 -29t-116.5 -80t-79 -118.5t-28.5 -143.5zM360 1024q0 16 12.5 28.5t28.5 12.5t28.5 -12.5t12.5 -28.5t-12 -28.5 t-29 -12.5q-16 0 -28.5 12.5t-12.5 28.5zM698 1024q0 16 12.5 28.5t28.5 12.5t28.5 -12.5t12.5 -28.5t-12 -28.5t-29 -12.5q-16 0 -28.5 12.5t-12.5 28.5z" />
<glyph unicode="&#xe5;" d="M92 385q0 82 31 155.5t85 127t126 85t155 31.5q127 0 226.5 -70.5t144.5 -181.5q0 59 2 118t6 118h21v-768h-29v111q0 33 1 64.5t1 64.5q-23 -55 -59.5 -101.5t-84.5 -80t-106.5 -52t-122.5 -18.5q-84 0 -155.5 30.5t-125.5 85t-85 126t-31 155.5zM121 385 q0 -78 28.5 -144.5t79 -116.5t117 -79t143.5 -29q76 0 143.5 29t119 79t80 116.5t28.5 144.5q0 76 -28.5 143.5t-80 118.5t-119 80t-143.5 29q-78 0 -144 -29t-116.5 -80t-79 -118.5t-28.5 -143.5zM375 961q0 55 37 92t92 37t92 -37t37 -92t-37 -92.5t-92 -37.5t-92 37.5 t-37 92.5zM403 961q0 -41 30 -71t71 -30t70.5 30t29.5 71t-29.5 70.5t-70.5 29.5t-71 -29.5t-30 -70.5z" />
<glyph unicode="&#xe6;" horiz-adv-x="1273" d="M88 213q0 47 21.5 82t57.5 58.5t79 34.5t86 11h160l-3 -34h-122q-72 0 -119 -14.5t-75 -36t-39 -48t-11 -51.5q0 -55 23.5 -93t61.5 -61.5t86 -34t95 -10.5q121 0 187.5 52.5t76.5 121.5l23 -36q-25 -92 -109 -131t-192 -39q-68 0 -121 18t-90 50t-56.5 74t-19.5 87z M113 709q41 33 109.5 54t166.5 21q102 0 162.5 -26.5t91.5 -73.5l-25 -20q-29 43 -85 65.5t-154 22.5q-100 0 -153.5 -20.5t-96.5 -51.5zM471 385q0 82 30.5 155.5t85 128t126 86t155.5 31.5q127 0 214 -72.5t132 -183.5q-78 -31 -165.5 -66.5t-178 -72.5t-179.5 -72.5 t-167 -68.5q41 -104 133.5 -169t210.5 -65q74 0 138.5 26t113.5 73l23 -21q-53 -49 -124 -77.5t-151 -28.5q-84 0 -155.5 30.5t-126 85t-85 126t-30.5 155.5zM500 385q0 -59 14 -109q76 31 160 66t170 68.5t171 68.5t161 66q-43 92 -120 151.5t-188 59.5q-78 0 -144.5 -29 t-116.5 -80t-78.5 -118.5t-28.5 -143.5z" />
<glyph unicode="&#xe7;" horiz-adv-x="825" d="M92 385q0 82 31 155.5t85 127t126 85t155 31.5q72 0 136.5 -23.5t115.5 -64.5q-4 -6 -10 -11t-10 -11q-47 39 -106.5 60.5t-125.5 21.5q-78 0 -144 -29t-116.5 -80t-79 -118.5t-28.5 -143.5q0 -78 28.5 -144.5t79 -116.5t117 -79t143.5 -29q66 0 125.5 21.5t106.5 58.5 l20 -20q-53 -41 -116.5 -64.5t-135.5 -23.5q-84 0 -155.5 30.5t-125.5 85t-85 126t-31 155.5zM315 -338q8 2 15.5 4t15.5 4q12 -43 48 -70.5t87 -27.5q63 0 103.5 42t40.5 105q0 57 -27 88t-58.5 52.5t-58 44t-26.5 63.5v33h28v-12q0 -53 29 -75t55 -38q47 -31 66.5 -68.5 t19.5 -66.5q0 -104 -52 -150.5t-120 -46.5q-53 0 -99 30t-67 89z" />
<glyph unicode="&#xe8;" horiz-adv-x="894" d="M92 385q0 82 31 155.5t85 128t126 86t155 31.5q127 0 214.5 -72.5t132.5 -183.5q-78 -31 -166 -66.5t-178.5 -72.5t-179.5 -72.5t-167 -68.5q41 -104 133.5 -169t210.5 -65q74 0 138.5 26t113.5 73l23 -21q-53 -49 -124 -77.5t-151 -28.5q-84 0 -155.5 30.5t-125.5 85 t-85 126t-31 155.5zM121 385q0 -59 14 -109q76 31 160 66t170 68.5t171 68.5t161 66q-43 92 -120 151.5t-188 59.5q-78 0 -144 -29t-116.5 -80t-79 -118.5t-28.5 -143.5zM276 1253h33q47 -68 92 -136t93 -136h-33q-47 68 -92 136.5t-93 135.5z" />
<glyph unicode="&#xe9;" horiz-adv-x="894" d="M92 385q0 82 31 155.5t85 128t126 86t155 31.5q127 0 214.5 -72.5t132.5 -183.5q-78 -31 -166 -66.5t-178.5 -72.5t-179.5 -72.5t-167 -68.5q41 -104 133.5 -169t210.5 -65q74 0 138.5 26t113.5 73l23 -21q-53 -49 -124 -77.5t-151 -28.5q-84 0 -155.5 30.5t-125.5 85 t-85 126t-31 155.5zM121 385q0 -59 14 -109q76 31 160 66t170 68.5t171 68.5t161 66q-43 92 -120 151.5t-188 59.5q-78 0 -144 -29t-116.5 -80t-79 -118.5t-28.5 -143.5zM496 981q47 68 92 136.5t92 135.5h33q-47 -68 -92.5 -136t-92.5 -136h-32z" />
<glyph unicode="&#xea;" horiz-adv-x="894" d="M92 385q0 82 31 155.5t85 128t126 86t155 31.5q127 0 214.5 -72.5t132.5 -183.5q-78 -31 -166 -66.5t-178.5 -72.5t-179.5 -72.5t-167 -68.5q41 -104 133.5 -169t210.5 -65q74 0 138.5 26t113.5 73l23 -21q-53 -49 -124 -77.5t-151 -28.5q-84 0 -155.5 30.5t-125.5 85 t-85 126t-31 155.5zM121 385q0 -59 14 -109q76 31 160 66t170 68.5t171 68.5t161 66q-43 92 -120 151.5t-188 59.5q-78 0 -144 -29t-116.5 -80t-79 -118.5t-28.5 -143.5zM248 981q61 92 123 185.5t123 185.5q61 -92 122.5 -185.5t122.5 -185.5h-32q-53 78 -106.5 158 t-106.5 157q-53 -78 -106.5 -157.5t-106.5 -157.5h-33z" />
<glyph unicode="&#xeb;" horiz-adv-x="894" d="M92 385q0 82 31 155.5t85 128t126 86t155 31.5q127 0 214.5 -72.5t132.5 -183.5q-78 -31 -166 -66.5t-178.5 -72.5t-179.5 -72.5t-167 -68.5q41 -104 133.5 -169t210.5 -65q74 0 138.5 26t113.5 73l23 -21q-53 -49 -124 -77.5t-151 -28.5q-84 0 -155.5 30.5t-125.5 85 t-85 126t-31 155.5zM121 385q0 -59 14 -109q76 31 160 66t170 68.5t171 68.5t161 66q-43 92 -120 151.5t-188 59.5q-78 0 -144 -29t-116.5 -80t-79 -118.5t-28.5 -143.5zM279 1024q0 16 12 28.5t28 12.5t28.5 -12.5t12.5 -28.5t-12 -28.5t-29 -12.5q-16 0 -28 12.5t-12 28.5 zM616 1024q0 16 12.5 28.5t28.5 12.5t28.5 -12.5t12.5 -28.5t-12 -28.5t-29 -12.5q-16 0 -28.5 12.5t-12.5 28.5z" />
<glyph unicode="&#xec;" horiz-adv-x="339" d="M-8 1253h33q47 -68 92 -136t92 -136h-33q-47 68 -92 136.5t-92 135.5zM156 0v768h28v-768h-28z" />
<glyph unicode="&#xed;" horiz-adv-x="339" d="M156 0v768h28v-768h-28zM156 981q47 68 92 136.5t92 135.5h33q-47 -68 -92 -136t-93 -136h-32z" />
<glyph unicode="&#xee;" horiz-adv-x="339" d="M-74 981q61 92 123 185.5t123 185.5q61 -92 122.5 -185.5t123.5 -185.5h-33q-53 78 -106.5 158t-106.5 157q-53 -78 -106.5 -157.5t-106.5 -157.5h-33zM156 0v768h28v-768h-28z" />
<glyph unicode="&#xef;" horiz-adv-x="339" d="M-39 1024q0 16 12.5 28.5t28.5 12.5t28.5 -12.5t12.5 -28.5t-12.5 -28.5t-28.5 -12.5t-28.5 12.5t-12.5 28.5zM156 0v768h28v-768h-28zM299 1024q0 16 12.5 28.5t28.5 12.5t28.5 -12.5t12.5 -28.5t-12.5 -28.5t-28.5 -12.5t-28.5 12.5t-12.5 28.5z" />
<glyph unicode="&#xf0;" horiz-adv-x="999" d="M92 385q0 82 31 155.5t85 128t126 86t155 31.5q82 0 156 -31.5t128 -86t86 -128t32 -155.5q0 -84 -32 -155.5t-86 -126t-128 -85t-156 -30.5q-84 0 -155.5 30.5t-125.5 85t-85 126t-31 155.5zM121 385q0 -78 28.5 -144.5t79 -116.5t117 -79t143.5 -29q76 0 143.5 29 t119 79t80 116.5t28.5 144.5q0 76 -28.5 143.5t-80 118.5t-119 80t-143.5 29q-78 0 -144 -29t-116.5 -80t-79 -118.5t-28.5 -143.5zM254 1468l12 19q98 -74 197 -182q35 41 71.5 78.5t71.5 78.5q4 -4 8 -7t9 -7q-37 -41 -73 -80t-73 -80q84 -98 160 -210.5t133 -229.5 t91 -234.5t34 -228.5q0 -55 -5 -53t-14.5 41t-20.5 102.5t-26 128.5q-12 57 -39.5 132t-72.5 161t-107.5 180t-148.5 193l-154 -166l-16 16q39 41 78 84t77 84q-45 47 -92 93t-100 87z" />
<glyph unicode="&#xf1;" horiz-adv-x="901" d="M156 0v768h20l2 -201q41 96 131 155.5t207 59.5q109 0 171.5 -63.5t66.5 -165.5v-553h-29v567q-4 74 -54 128.5t-141 58.5q-70 0 -132 -22.5t-110 -62.5t-76 -96.5t-28 -121.5v-451h-28zM174 946q2 37 18.5 63.5t40 43t52 23.5t57.5 7q41 0 75 -21.5t66 -55.5 q33 -37 57.5 -49.5t53.5 -12.5q16 0 37.5 5t42 17.5t36 34t19.5 56.5q6 -2 13.5 -2t13.5 -2q-2 -37 -18.5 -63.5t-40 -43t-52.5 -24t-57 -7.5q-41 0 -75 21.5t-67 56.5q-33 37 -57 49.5t-53 12.5q-16 0 -38 -5.5t-42 -17.5t-35.5 -33.5t-19.5 -56.5q-6 2 -13.5 2t-13.5 2z " />
<glyph unicode="&#xf2;" horiz-adv-x="983" d="M92 385q0 82 31 155.5t85 128t126 86t155 31.5q82 0 156 -31.5t128 -86t86 -128t32 -155.5q0 -84 -32 -155.5t-86 -126t-128 -85t-156 -30.5q-84 0 -155.5 30.5t-125.5 85t-85 126t-31 155.5zM121 385q0 -78 28.5 -144.5t79 -116.5t117 -79t143.5 -29q76 0 143.5 29 t119 79t80 116.5t28.5 144.5q0 76 -28.5 143.5t-80 118.5t-119 80t-143.5 29q-78 0 -144 -29t-116.5 -80t-79 -118.5t-28.5 -143.5zM272 1253h33q47 -68 92 -136t92 -136h-32q-47 68 -92.5 136.5t-92.5 135.5z" />
<glyph unicode="&#xf3;" horiz-adv-x="983" d="M92 385q0 82 31 155.5t85 128t126 86t155 31.5q82 0 156 -31.5t128 -86t86 -128t32 -155.5q0 -84 -32 -155.5t-86 -126t-128 -85t-156 -30.5q-84 0 -155.5 30.5t-125.5 85t-85 126t-31 155.5zM121 385q0 -78 28.5 -144.5t79 -116.5t117 -79t143.5 -29q76 0 143.5 29 t119 79t80 116.5t28.5 144.5q0 76 -28.5 143.5t-80 118.5t-119 80t-143.5 29q-78 0 -144 -29t-116.5 -80t-79 -118.5t-28.5 -143.5zM492 981q47 68 92 136.5t92 135.5h33q-47 -68 -92.5 -136t-92.5 -136h-32z" />
<glyph unicode="&#xf4;" horiz-adv-x="983" d="M92 385q0 82 31 155.5t85 128t126 86t155 31.5q82 0 156 -31.5t128 -86t86 -128t32 -155.5q0 -84 -32 -155.5t-86 -126t-128 -85t-156 -30.5q-84 0 -155.5 30.5t-125.5 85t-85 126t-31 155.5zM121 385q0 -78 28.5 -144.5t79 -116.5t117 -79t143.5 -29q76 0 143.5 29 t119 79t80 116.5t28.5 144.5q0 76 -28.5 143.5t-80 118.5t-119 80t-143.5 29q-78 0 -144 -29t-116.5 -80t-79 -118.5t-28.5 -143.5zM244 981q61 92 122.5 185.5t122.5 185.5q61 -92 123 -185.5t123 -185.5h-33q-53 78 -106 158t-107 157q-53 -78 -106 -157.5t-107 -157.5 h-32z" />
<glyph unicode="&#xf5;" horiz-adv-x="983" d="M92 385q0 82 31 155.5t85 128t126 86t155 31.5q82 0 156 -31.5t128 -86t86 -128t32 -155.5q0 -84 -32 -155.5t-86 -126t-128 -85t-156 -30.5q-84 0 -155.5 30.5t-125.5 85t-85 126t-31 155.5zM121 385q0 -78 28.5 -144.5t79 -116.5t117 -79t143.5 -29q76 0 143.5 29 t119 79t80 116.5t28.5 144.5q0 76 -28.5 143.5t-80 118.5t-119 80t-143.5 29q-78 0 -144 -29t-116.5 -80t-79 -118.5t-28.5 -143.5zM205 971q2 37 18.5 63.5t40 43t52 23.5t57.5 7q41 0 74.5 -21.5t66.5 -56.5q33 -37 57.5 -49t53.5 -12q16 0 37.5 5t42 17.5t36 34 t19.5 55.5q6 -2 13 -2t13 -2q-2 -37 -18 -63.5t-39.5 -43t-52.5 -23.5t-58 -7q-41 0 -74.5 21.5t-66.5 56.5q-33 37 -57.5 49t-52.5 12q-16 0 -38 -5t-42.5 -17.5t-35.5 -34t-20 -55.5q-6 2 -13 2t-13 2z" />
<glyph unicode="&#xf6;" horiz-adv-x="983" d="M92 385q0 82 31 155.5t85 128t126 86t155 31.5q82 0 156 -31.5t128 -86t86 -128t32 -155.5q0 -84 -32 -155.5t-86 -126t-128 -85t-156 -30.5q-84 0 -155.5 30.5t-125.5 85t-85 126t-31 155.5zM121 385q0 -78 28.5 -144.5t79 -116.5t117 -79t143.5 -29q76 0 143.5 29 t119 79t80 116.5t28.5 144.5q0 76 -28.5 143.5t-80 118.5t-119 80t-143.5 29q-78 0 -144 -29t-116.5 -80t-79 -118.5t-28.5 -143.5zM289 1024q0 16 12 28.5t29 12.5q16 0 28.5 -12.5t12.5 -28.5t-12.5 -28.5t-28.5 -12.5t-28.5 12.5t-12.5 28.5zM627 1024q0 16 12 28.5 t29 12.5q16 0 28.5 -12.5t12.5 -28.5t-12.5 -28.5t-28.5 -12.5t-28.5 12.5t-12.5 28.5z" />
<glyph unicode="&#xf7;" horiz-adv-x="1071" d="M168 430v29h737v-29h-737zM502 186q0 16 12 28.5t29 12.5q16 0 28.5 -12t12.5 -29q0 -16 -12.5 -28.5t-28.5 -12.5t-28.5 12.5t-12.5 28.5zM502 698q0 16 12 28.5t29 12.5q16 0 28.5 -12t12.5 -29q0 -16 -12.5 -28.5t-28.5 -12.5t-28.5 12.5t-12.5 28.5z" />
<glyph unicode="&#xf8;" horiz-adv-x="983" d="M92 385q0 82 31 155.5t85 128t126 86t155 31.5q82 0 156 -31.5t128 -86t86 -128t32 -155.5q0 -84 -32 -155.5t-86 -126t-128 -85t-156 -30.5q-84 0 -155.5 30.5t-125.5 85t-85 126t-31 155.5zM121 385q0 -78 28.5 -144.5t79 -116.5t117 -79t143.5 -29q76 0 143.5 29 t119 79t80 116.5t28.5 144.5q0 76 -28.5 143.5t-80 118.5t-119 80t-143.5 29q-78 0 -144 -29t-116.5 -80t-79 -118.5t-28.5 -143.5zM147 20q53 63 138.5 164t175.5 210.5t175 210t138 163.5l19 -18q-53 -63 -138.5 -165t-176.5 -210.5t-176 -210t-138 -164.5z" />
<glyph unicode="&#xf9;" horiz-adv-x="901" d="M147 215v553h29v-567q4 -74 54.5 -128.5t140.5 -58.5q70 0 132 22.5t109 62.5t76 96.5t29 121.5v451h28v-768h-20l-2 201q-41 -98 -132 -156.5t-206 -58.5q-109 0 -171 63.5t-67 165.5zM385 1253h33q47 -68 92 -136t92 -136h-33q-47 68 -92 136.5t-92 135.5z" />
<glyph unicode="&#xfa;" horiz-adv-x="901" d="M147 215v553h29v-567q4 -74 54.5 -128.5t140.5 -58.5q70 0 132 22.5t109 62.5t76 96.5t29 121.5v451h28v-768h-20l-2 201q-41 -98 -132 -156.5t-206 -58.5q-109 0 -171 63.5t-67 165.5zM498 981q47 68 92 136.5t92 135.5h33q-47 -68 -92 -136t-93 -136h-32z" />
<glyph unicode="&#xfb;" horiz-adv-x="901" d="M147 215v553h29v-567q4 -74 54.5 -128.5t140.5 -58.5q70 0 132 22.5t109 62.5t76 96.5t29 121.5v451h28v-768h-20l-2 201q-41 -98 -132 -156.5t-206 -58.5q-109 0 -171 63.5t-67 165.5zM324 981q61 92 122.5 185.5t122.5 185.5q61 -92 123 -185.5t123 -185.5h-33 q-53 78 -106 158t-107 157q-53 -78 -106 -157.5t-107 -157.5h-32z" />
<glyph unicode="&#xfc;" horiz-adv-x="901" d="M147 215v553h29v-567q4 -74 54.5 -128.5t140.5 -58.5q70 0 132 22.5t109 62.5t76 96.5t29 121.5v451h28v-768h-20l-2 201q-41 -98 -132 -156.5t-206 -58.5q-109 0 -171 63.5t-67 165.5zM346 1024q0 16 12.5 28.5t28.5 12.5t28.5 -12.5t12.5 -28.5t-12.5 -28.5 t-28.5 -12.5t-28.5 12.5t-12.5 28.5zM684 1024q0 16 12.5 28.5t28.5 12.5t28.5 -12.5t12.5 -28.5t-12.5 -28.5t-28.5 -12.5t-28.5 12.5t-12.5 28.5z" />
<glyph unicode="&#xfd;" horiz-adv-x="825" d="M47 768h31q94 -186 166.5 -374.5t167.5 -377.5q94 188 166.5 376t166.5 376h31l-493 -1137h-39q23 49 38 88t30.5 79t32.5 87t44 113q-94 193 -171 384t-171 386zM438 981q47 68 92 136.5t93 135.5h32q-47 -68 -92 -136t-92 -136h-33z" />
<glyph unicode="&#xfe;" d="M156 -369v1905h28v-1004q45 111 144.5 181.5t226.5 70.5q82 0 154.5 -31.5t127 -85t85 -127t30.5 -155.5q0 -84 -30.5 -155.5t-85 -126t-127 -85t-154.5 -30.5q-63 0 -121.5 18.5t-106.5 52t-86 79.5t-59 102q0 -33 1 -65t1 -64v-480h-28zM184 385q0 -78 29 -144.5 t80 -116.5t117.5 -79t144.5 -29q76 0 143.5 29t117.5 79t79 116.5t29 144.5q0 76 -29 143.5t-79 118.5t-117.5 80t-143.5 29q-78 0 -144.5 -29t-117.5 -80t-80 -118.5t-29 -143.5z" />
<glyph unicode="&#xff;" horiz-adv-x="825" d="M47 768h31q94 -186 166.5 -374.5t167.5 -377.5q94 188 166.5 376t166.5 376h31l-493 -1137h-39q23 49 38 88t30.5 79t32.5 87t44 113q-94 193 -171 384t-171 386zM258 1024q0 16 12.5 28.5t28.5 12.5t28.5 -12.5t12.5 -28.5t-12.5 -28.5t-28.5 -12.5t-28.5 12.5 t-12.5 28.5zM596 1024q0 16 12.5 28.5t28.5 12.5t28.5 -12.5t12.5 -28.5t-12.5 -28.5t-28.5 -12.5t-28.5 12.5t-12.5 28.5z" />
<glyph unicode="&#x152;" horiz-adv-x="1937" d="M125 715q0 152 57.5 286t156.5 233t232.5 157.5t284.5 58.5q96 0 186 -25l-32 -20q-78 16 -154 16q-145 0 -273 -56t-223.5 -152.5t-150.5 -225.5t-55 -274t55 -272.5t149.5 -222.5t221.5 -150.5t270 -55.5q80 0 158 19l30 -25q-90 -23 -182 -22q-152 0 -285 57 t-232 156.5t-156.5 232.5t-57.5 285zM997 0v1434h789v-29h-760v-668h680v-28h-680v-680h789v-29h-818z" />
<glyph unicode="&#x153;" horiz-adv-x="1345" d="M92 385q0 82 31 155.5t85 128t126 86t155 31.5q66 0 126.5 -20.5t109.5 -54.5l-25 -21q-45 31 -98 48.5t-113 17.5q-78 0 -144 -29t-116.5 -80t-79 -118.5t-28.5 -143.5q0 -78 28.5 -144.5t79 -116.5t117 -79t143.5 -29q59 0 112.5 17.5t98.5 48.5l29 -16 q-51 -37 -111.5 -57.5t-128.5 -20.5q-84 0 -155.5 30.5t-125.5 85t-85 126t-31 155.5zM543 385q0 82 30.5 155.5t85 128t126 86t155.5 31.5q127 0 214 -72.5t132 -183.5q-78 -31 -166 -66.5t-178 -72.5t-179 -72.5t-167 -68.5q41 -104 133 -169t211 -65q74 0 138.5 26 t113.5 73l22 -21q-53 -49 -123.5 -77.5t-150.5 -28.5q-84 0 -155.5 30.5t-126 85t-85 126t-30.5 155.5zM571 385q0 -59 15 -109q76 31 159.5 66t169.5 68.5t171 68.5t161 66q-43 92 -119.5 151.5t-187.5 59.5q-78 0 -144.5 -29t-116.5 -80t-79 -118.5t-29 -143.5z" />
<glyph unicode="&#x178;" horiz-adv-x="1216" d="M55 1434h35q123 -207 248 -411t246 -413l26 -53q6 14 11.5 26.5t11.5 26.5l491 824h35l-536 -897v-537h-29v537q-135 225 -269.5 448t-269.5 449zM397 1618q0 16 12.5 28.5t28.5 12.5t28.5 -12.5t12.5 -28.5t-12 -28.5t-29 -12.5q-16 0 -28.5 12.5t-12.5 28.5zM735 1618 q0 16 12.5 28.5t28.5 12.5t28.5 -12.5t12.5 -28.5t-12 -28.5t-29 -12.5q-16 0 -28.5 12.5t-12.5 28.5z" />
<glyph unicode="&#x2c6;" horiz-adv-x="921" d="M229 981q61 92 123 185.5t123 185.5q61 -92 122.5 -185.5t123.5 -185.5h-33q-53 78 -106.5 158t-106.5 157q-53 -78 -106.5 -157.5t-106.5 -157.5h-33z" />
<glyph unicode="&#x2dc;" horiz-adv-x="1214" d="M350 946q2 37 18.5 63.5t40 43t52 23.5t57.5 7q41 0 75 -21.5t66 -55.5q33 -37 57.5 -49.5t53.5 -12.5q16 0 37.5 5t42 17.5t36 34t19.5 56.5q6 -2 13.5 -2t13.5 -2q-2 -37 -18.5 -63.5t-40 -43t-52 -24t-57.5 -7.5q-41 0 -74.5 21.5t-66.5 56.5q-33 37 -57.5 49.5 t-53.5 12.5q-16 0 -37.5 -5.5t-42 -17.5t-36 -33.5t-19.5 -56.5q-6 2 -13.5 2t-13.5 2z" />
<glyph unicode="&#x2000;" horiz-adv-x="953" />
<glyph unicode="&#x2001;" horiz-adv-x="1907" />
<glyph unicode="&#x2002;" horiz-adv-x="953" />
<glyph unicode="&#x2003;" horiz-adv-x="1907" />
<glyph unicode="&#x2004;" horiz-adv-x="635" />
<glyph unicode="&#x2005;" horiz-adv-x="476" />
<glyph unicode="&#x2006;" horiz-adv-x="317" />
<glyph unicode="&#x2007;" horiz-adv-x="317" />
<glyph unicode="&#x2008;" horiz-adv-x="238" />
<glyph unicode="&#x2009;" horiz-adv-x="381" />
<glyph unicode="&#x200a;" horiz-adv-x="105" />
<glyph unicode="&#x2010;" horiz-adv-x="671" d="M147 377v29h377v-29h-377z" />
<glyph unicode="&#x2011;" horiz-adv-x="671" d="M147 377v29h377v-29h-377z" />
<glyph unicode="&#x2012;" horiz-adv-x="671" d="M147 377v29h377v-29h-377z" />
<glyph unicode="&#x2013;" horiz-adv-x="890" d="M137 367v28h617v-28h-617z" />
<glyph unicode="&#x2014;" horiz-adv-x="1302" d="M137 367v28h1028v-28h-1028z" />
<glyph unicode="&#x2018;" horiz-adv-x="378" d="M137 1456q10 -4 19.5 -7t19.5 -7q-14 -72 5.5 -132.5t62.5 -101.5l-13 -37q-59 53 -84.5 128t-9.5 157z" />
<glyph unicode="&#x2019;" horiz-adv-x="376" d="M135 1208q43 41 62.5 101.5t5.5 132.5q10 4 19 7t20 7q16 -82 -10 -157t-85 -128z" />
<glyph unicode="&#x201a;" horiz-adv-x="438" d="M139 -59q43 41 62.5 101t5.5 132q10 4 19.5 7t19.5 7q16 -82 -9.5 -156.5t-84.5 -127.5z" />
<glyph unicode="&#x201c;" horiz-adv-x="591" d="M135 1456q10 -4 19.5 -7t19.5 -7q-14 -72 5.5 -132.5t62.5 -101.5l-13 -37q-59 53 -84.5 128t-9.5 157zM348 1456q10 -4 19.5 -7t19.5 -7q-14 -72 5.5 -132.5t62.5 -101.5l-13 -37q-59 53 -84.5 128t-9.5 157z" />
<glyph unicode="&#x201d;" horiz-adv-x="593" d="M137 1208q43 41 62.5 101.5t5.5 132.5q10 4 19 7t20 7q16 -82 -9.5 -157t-84.5 -128zM350 1208q43 41 62.5 101.5t5.5 132.5q10 4 19 7t20 7q16 -82 -10 -157t-85 -128z" />
<glyph unicode="&#x201e;" horiz-adv-x="651" d="M139 -59q43 41 62.5 101t5.5 132q10 4 19.5 7t19.5 7q16 -82 -9.5 -156.5t-84.5 -127.5zM352 -59q43 41 62.5 101t5.5 132q10 4 19.5 7t19.5 7q16 -82 -9.5 -156.5t-84.5 -127.5z" />
<glyph unicode="&#x2022;" horiz-adv-x="686" d="M209 614q0 57 39 96.5t94 39.5q57 0 96 -39t39 -97q0 -55 -39 -94t-96 -39q-55 0 -94 39t-39 94z" />
<glyph unicode="&#x2026;" d="M147 41q0 16 12.5 28.5t28.5 12.5t28.5 -12.5t12.5 -28.5t-12 -28.5t-29 -12.5q-16 0 -28.5 12.5t-12.5 28.5zM481 41q0 16 12.5 28.5t28.5 12.5t28.5 -12.5t12.5 -28.5t-12 -28.5t-29 -12.5q-16 0 -28.5 12.5t-12.5 28.5zM815 41q0 16 12.5 28.5t28.5 12.5t28.5 -12.5 t12.5 -28.5t-12.5 -28.5t-28.5 -12.5t-28.5 12.5t-12.5 28.5z" />
<glyph unicode="&#x202f;" horiz-adv-x="381" />
<glyph unicode="&#x2039;" horiz-adv-x="585" d="M102 489q88 84 175.5 165t175.5 165v-35q-72 -74 -146 -147.5t-145 -147.5q72 -76 145.5 -149.5t145.5 -149.5v-32z" />
<glyph unicode="&#x203a;" horiz-adv-x="587" d="M133 158v32q72 76 145.5 150t145.5 149q-72 74 -145.5 148t-145.5 147v35q88 -84 175 -165t175 -165z" />
<glyph unicode="&#x205f;" horiz-adv-x="476" />
<glyph unicode="&#x20ac;" horiz-adv-x="1138" d="M100 776v29h670v-29h-670zM102 559v29h668v-29h-668zM227 670q0 98 30 216t95.5 220t172 172t259.5 70q82 0 137.5 -20.5t65.5 -29.5l-12 -20q-92 41 -193 41q-111 0 -206 -44t-165.5 -129t-111.5 -205t-41 -269q0 -150 43 -270.5t114.5 -206.5t166 -133.5t192.5 -47.5 q113 0 217 58l25 -17q-115 -70 -246 -69q-113 0 -212 54t-173 146.5t-116 216t-42 267.5z" />
<glyph unicode="&#x2122;" horiz-adv-x="1193" d="M96 1538v12h312v-12h-152v-518h-8v518h-152zM510 1020v553q35 -53 65.5 -98t60.5 -88.5t58.5 -85t61.5 -87.5q16 25 42.5 65t59.5 87t70 100.5t73 106.5v-553h-10v487v33q-63 -92 -121.5 -180t-113.5 -168q-25 33 -59.5 84t-69.5 102.5t-63.5 95.5t-41.5 66v-33v-487h-12 z" />
<glyph unicode="&#x25fc;" horiz-adv-x="768" d="M0 0v768h768v-768h-768z" />
<glyph unicode="&#xfb01;" horiz-adv-x="919" d="M59 739v29h134v293q0 113 29.5 201t81.5 147t121 91t146 36v-29q-70 0 -133 -30.5t-111 -88t-77 -138.5t-29 -181v-301h533v-29h-533v-739h-28v739h-134zM735 0v768h29v-768h-29z" />
<glyph unicode="&#xfb02;" horiz-adv-x="927" d="M59 733v29h134v299q0 113 29.5 201t81.5 147t121 91t146 36v-29q-70 0 -133 -30.5t-111 -88t-77 -138.5t-29 -181v-307h266v-29h-266v-733h-28v733h-134zM571 1507v29h179v-29h-179zM735 0v1536h29v-1536h-29z" />
</font>
</defs>
</svg>
